<?xml version="1.0" standalone="no"?>
<!DOCTYPE svg PUBLIC "-//W3C//DTD SVG 1.1//EN" "http://www.w3.org/Graphics/SVG/1.1/DTD/svg11.dtd" >
<svg>
<metadata>
Created by FontForge 20110222 at Thu Feb 26 16:58:07 2015
 By deploy user
Copyright (c) 2008 by Jos Buivenga/exljbris. All rights reserved.
</metadata>
<defs>
<font id="Museo-500" horiz-adv-x="613" >
  <font-face 
    font-family="Museo 500"
    font-weight="400"
    font-stretch="normal"
    units-per-em="1000"
    panose-1="2 0 0 0 0 0 0 0 0 0"
    ascent="750"
    descent="-250"
    x-height="506"
    cap-height="706"
    bbox="-53 -237 1124 892"
    underline-thickness="50"
    underline-position="-50"
    unicode-range="U+0020-FB04"
  />
<missing-glyph horiz-adv-x="510" 
d="M5 0v700h500v-700h-500zM255 395l170 255h-340zM285 350l170 -255v510zM55 95l170 255l-170 255v-510zM85 50h340l-170 255z" />
    <glyph glyph-name="f_f" unicode="ff" horiz-adv-x="639" 
d="M85 0v428h-63v78h63v17q0 48 14 83.5t34.5 55t48 31t49.5 15t45 3.5l37 -3v-83q-10 2 -25 2q-17 0 -33 -4t-34 -14t-28.5 -33t-10.5 -56v-14h218v17q0 48 14 83.5t34.5 55t48 31t49.5 15t45 3.5l37 -3v-83q-11 2 -25 2q-17 0 -33 -4t-34 -14t-28.5 -33t-10.5 -56v-14h119
v-78h-119v-428h-97v428h-218v-428h-97z" />
    <glyph glyph-name="fi" unicode="fi" horiz-adv-x="590" 
d="M85 0v428h-63v78h63v17q0 48 14 83.5t34.5 55t48 31t49.5 15t45 3.5l37 -3v-83q-11 2 -27 2q-17 0 -32.5 -4t-33 -14t-28 -33t-10.5 -56v-14h255q34 0 49 -15t15 -49v-337q0 -22 22 -22h41v-83h-95q-34 0 -49.5 15t-15.5 49v342q0 22 -22 22h-200v-428h-97zM406 605v101
h88v-101h-88z" />
    <glyph glyph-name="fl" unicode="fl" horiz-adv-x="583" 
d="M276 706h155q34 0 49 -15t15 -49v-537q0 -22 22 -22h41v-83h-96q-34 0 -49 15t-15 49v537q0 22 -22 22h-88q-106 0 -106 -102v-15h120v-78h-120v-428h-97v428h-63v78h63v17q0 48 14 83t34 53.5t48.5 29.5t49.5 14t45 3z" />
    <glyph glyph-name="f_f_i" unicode="ffi" horiz-adv-x="904" 
d="M85 0v428h-63v78h63v17q0 48 14 83.5t34.5 55t48 31t49.5 15t45 3.5l37 -3v-83q-11 2 -27 2q-17 0 -32.5 -4t-33 -14t-28 -33t-10.5 -56v-14h218v17q0 48 14 83.5t34.5 55t48 31t49.5 15t45 3.5l37 -3v-83q-11 2 -27 2q-17 0 -32.5 -4t-33 -14t-28 -33t-10.5 -56v-14h255
q34 0 49 -15t15 -49v-337q0 -22 22 -22h41v-83h-96q-34 0 -49 15t-15 49v342q0 22 -22 22h-200v-428h-97v428h-218v-428h-97zM721 605v101h87v-101h-87z" />
    <glyph glyph-name="f_f_l" unicode="ffl" horiz-adv-x="897" 
d="M590 706h155q34 0 49 -15t15 -49v-537q0 -22 22 -22h41v-83h-96q-34 0 -49 15t-15 49v537q0 22 -22 22h-88q-106 0 -106 -102v-15h120v-78h-120v-428h-97v428h-217v-428h-97v428h-63v78h63v19q0 47 14 82.5t33.5 54.5t47 30.5t49.5 15t45 3.5l39 -3v-83q-12 2 -27 2
q-17 0 -32.5 -4t-33 -14t-28 -33t-10.5 -55v-15h217v17q0 48 14 83t34 53.5t48.5 29.5t49.5 14t45 3z" />
    <glyph glyph-name="f_j" unicode="fj" horiz-adv-x="606" 
d="M85 0v428h-63v78h63v17q0 48 14 83.5t34.5 55t48 31t49.5 15t45 3.5l37 -3v-83q-11 2 -27 2q-17 0 -32.5 -4t-33 -14t-28 -33t-10.5 -56v-14h276q34 0 49 -15t15 -49v-459q0 -48 -14.5 -84t-35 -55.5t-49 -31.5t-50.5 -15t-45 -3l-34 2v83q9 -1 22 -1q18 0 34 4t34.5 14
t29.5 34t11 59v417q0 22 -22 22h-221v-428h-97zM428 605v101h87v-101h-87z" />
    <glyph glyph-name=".notdef" horiz-adv-x="510" 
d="M5 0v700h500v-700h-500zM255 395l170 255h-340zM285 350l170 -255v510zM55 95l170 255l-170 255v-510zM85 50h340l-170 255z" />
    <glyph glyph-name=".null" horiz-adv-x="0" 
 />
    <glyph glyph-name="nonmarkingreturn" horiz-adv-x="333" 
 />
    <glyph glyph-name="space" unicode=" " horiz-adv-x="269" 
 />
    <glyph glyph-name="space" unicode="&#xa0;" horiz-adv-x="269" 
 />
    <glyph glyph-name="exclam" unicode="!" horiz-adv-x="314" 
d="M114 194l-7 512h100l-6 -512h-87zM108 0v97h99v-97h-99z" />
    <glyph glyph-name="quotedbl" unicode="&#x22;" horiz-adv-x="340" 
d="M202 530v188h76v-188h-76zM62 530v188h76v-188h-76z" />
    <glyph glyph-name="numbersign" unicode="#" horiz-adv-x="706" 
d="M134 0l33 191h-130l12 74h131l29 168h-129l12 73h130l35 200h81l-35 -200h155l35 200h81l-35 -200h131l-13 -73h-130l-30 -168h130l-13 -74h-129l-34 -191h-81l33 191h-155l-33 -191h-81zM261 265h155l30 168h-155z" />
    <glyph glyph-name="dollar" unicode="$" horiz-adv-x="546" 
d="M42 125l71 59q2 -4 7 -11t21 -25.5t34 -32t47.5 -25t61.5 -11.5q54 0 87.5 29.5t33.5 75.5q0 41 -35 71t-85.5 52t-100.5 48t-85 71.5t-35 108.5q0 70 51 119.5t133 60.5v94h73v-93q40 -5 75 -17.5t62.5 -41.5t27.5 -69v-58h-92v33q0 27 -30.5 45.5t-73.5 18.5
q-56 0 -90 -26t-34 -65q0 -30 19 -53t48.5 -39.5t66 -32t73 -34.5t66 -42.5t48.5 -61.5t19 -86q0 -74 -50.5 -130t-134.5 -66v-93h-73v92q-40 5 -76 20.5t-58.5 34.5t-39.5 37t-24 30z" />
    <glyph glyph-name="percent" unicode="%" horiz-adv-x="783" 
d="M210 422q-63 0 -107 43t-44 105q0 61 44 104.5t107 43.5t107.5 -43.5t44.5 -104.5t-44.5 -104.5t-107.5 -43.5zM74 0l540 706h94l-540 -706h-94zM210 496q32 0 53 21t21 53q0 31 -21.5 53t-52.5 22t-52.5 -22t-21.5 -53q0 -32 21 -53t53 -21zM421 136q0 61 44.5 104.5
t107.5 43.5q62 0 107 -43.5t45 -104.5t-45 -104.5t-107 -43.5q-64 0 -108 43t-44 105zM499 136q0 -32 21.5 -53t52.5 -21t52.5 21.5t21.5 52.5t-21.5 53t-52.5 22t-52.5 -22t-21.5 -53z" />
    <glyph glyph-name="ampersand" unicode="&#x26;" horiz-adv-x="638" 
d="M44 202q0 58 32.5 109t89.5 67v2q-4 1 -10 4t-21.5 15.5t-27.5 28.5t-22 45t-10 63q0 82 58.5 132t153.5 50q20 0 42.5 -3t34.5 -5l12 -3l-25 -79q-29 7 -53 7q-54 0 -88.5 -30.5t-34.5 -78.5q0 -19 5.5 -36.5t18.5 -35.5t40 -28.5t66 -10.5h127v91h97v-91h89v-86h-89
v-94q0 -117 -64 -182t-176 -65q-107 0 -176 61t-69 153zM145 203q0 -52 39.5 -88t104.5 -36q68 0 105.5 39.5t37.5 120.5v90h-126q-77 0 -119 -33t-42 -93z" />
    <glyph glyph-name="quotesingle" unicode="'" horiz-adv-x="201" 
d="M62 530v188h77v-188h-77z" />
    <glyph glyph-name="parenleft" unicode="(" horiz-adv-x="330" 
d="M83 329q0 232 113 406h85q-110 -184 -110 -399q0 -230 115 -431h-86q-117 183 -117 424z" />
    <glyph glyph-name="parenright" unicode=")" horiz-adv-x="330" 
d="M44 -95q115 201 115 431q0 215 -110 399h85q113 -174 113 -406q0 -241 -117 -424h-86z" />
    <glyph glyph-name="asterisk" unicode="*" horiz-adv-x="480" 
d="M161 329l-72 52l89 110v2l-136 37l26 84l133 -50l-7 142h91l-8 -142l134 50l27 -84l-137 -37v-2l88 -110l-71 -52l-77 118h-2z" />
    <glyph glyph-name="plus" unicode="+" 
d="M42 246v78h224v246h82v-246h223v-78h-223v-246h-82v246h-224z" />
    <glyph glyph-name="comma" unicode="," horiz-adv-x="240" 
d="M84 105h98l-85 -206h-75z" />
    <glyph glyph-name="hyphen" unicode="-" horiz-adv-x="431" 
d="M70 242v86h292v-86h-292z" />
    <glyph glyph-name="hyphen" unicode="&#xad;" horiz-adv-x="431" 
d="M70 242v86h292v-86h-292z" />
    <glyph glyph-name="period" unicode="." horiz-adv-x="240" 
d="M70 0v103h99v-103h-99z" />
    <glyph glyph-name="slash" unicode="/" horiz-adv-x="346" 
d="M1 -42l254 786h86l-254 -786h-86z" />
    <glyph glyph-name="zero" unicode="0" horiz-adv-x="607" 
d="M304 -12q-250 0 -250 366q0 364 250 364q249 0 249 -364q0 -366 -249 -366zM304 79q148 0 148 275q0 273 -148 273q-149 0 -149 -273q0 -275 149 -275z" />
    <glyph glyph-name="one" unicode="1" horiz-adv-x="504" 
d="M64 0v86h155v456l1 44h-2q-8 -16 -33 -41l-66 -65l-60 62l169 164h91v-620h154v-86h-409z" />
    <glyph glyph-name="two" unicode="2" horiz-adv-x="573" 
d="M38 81q0 53 20 95.5t51.5 71t70 52.5t76.5 45.5t69.5 44t51.5 54t20 70.5q0 49 -34 80.5t-90 31.5q-46 0 -77.5 -20t-31.5 -47v-31h-92v60q0 43 35 74t80 43.5t90 12.5q97 0 159.5 -56.5t62.5 -146.5q0 -67 -37 -119t-89.5 -84.5t-105 -61t-89.5 -65t-37 -80.5
q0 -19 25 -19h251q22 0 22 22v45h92v-89q0 -34 -15 -49t-49 -15h-362q-40 0 -53.5 18t-13.5 63z" />
    <glyph glyph-name="three" unicode="3" horiz-adv-x="541" 
d="M26 87l54 75l8.5 -8.5t23.5 -19.5t37 -24.5t49 -19t61 -8.5q58 0 99 36.5t41 92.5q0 57 -44 91.5t-108 34.5h-50l-21 53l147 185q9 13 19.5 24.5t15.5 16.5l6 5v2q-21 -3 -60 -3h-136q-22 0 -22 -22v-45h-92v89q0 34 14 49t47 15h372v-63l-186 -224q80 -9 140 -61
t60 -146q0 -92 -67.5 -158t-174.5 -66q-65 0 -123.5 25t-83.5 49z" />
    <glyph glyph-name="four" unicode="4" horiz-adv-x="575" 
d="M17 187v64l318 455h114v-433h110v-86h-110v-187h-100v187h-332zM350 273v243l4 72h-2q-18 -34 -36 -59l-154 -212l-37 -45v-2q29 3 60 3h165z" />
    <glyph glyph-name="five" unicode="5" horiz-adv-x="582" 
d="M51 87l54 73q2 -3 6.5 -8.5t20.5 -19t33.5 -23.5t46 -18.5t58.5 -8.5q66 0 109 40.5t43 100.5q0 64 -48.5 104t-119.5 40q-35 0 -68.5 -9t-49.5 -18l-16 -9l-41 19l28 292q3 35 17 49.5t47 14.5h246q34 0 49 -15t15 -49v-89h-91v45q0 22 -22 22h-148q-19 0 -22 -22
l-14 -129l-5 -37h2q38 21 91 21q112 0 182 -66.5t70 -165.5q0 -96 -71 -164.5t-183 -68.5q-65 0 -119.5 25t-76.5 49z" />
    <glyph glyph-name="six" unicode="6" horiz-adv-x="567" 
d="M302 -12q-114 0 -189 89.5t-75 235.5q0 72 19.5 141.5t57 129.5t100 97t141.5 37q37 0 71.5 -7t50.5 -15l15 -7l-32 -85q-45 23 -101 23q-90 0 -145 -70.5t-67 -171.5h2q21 32 64.5 50.5t91.5 18.5q99 0 161 -66t62 -164q0 -104 -64 -170t-163 -66zM143 271
q0 -71 46.5 -131.5t111.5 -60.5q60 0 95 41t35 104q0 65 -39 105.5t-106 40.5q-58 0 -100.5 -30t-42.5 -69z" />
    <glyph glyph-name="seven" unicode="7" horiz-adv-x="525" 
d="M63 0l300 556l41 65v2q-16 -3 -51 -3h-213q-22 0 -22 -22v-45h-92v89q0 34 14 49t47 15h429v-68l-342 -638h-111z" />
    <glyph glyph-name="eight" unicode="8" horiz-adv-x="576" 
d="M42 202q0 32 12 63t29 51.5t34 36t29 23.5l12 7v2q-4 2 -9.5 5.5t-20.5 17t-26.5 28.5t-21 40.5t-9.5 52.5q0 78 59 133.5t161 55.5q100 0 160.5 -53.5t60.5 -137.5q0 -29 -9 -57t-21 -47.5t-24.5 -34.5t-21.5 -22l-9 -7v-2q105 -61 105 -162q0 -85 -69 -146t-175 -61
q-103 0 -174.5 59t-71.5 155zM285 416q40 -17 55 -17q20 0 47.5 39t27.5 83q0 48 -34.5 77t-89.5 29q-56 0 -89 -28.5t-33 -71.5q0 -42 28.5 -65t87.5 -46zM143 207q0 -57 42.5 -92.5t102.5 -35.5q57 0 100 34t43 85q0 42 -29.5 67t-89.5 49q-64 26 -73 26q-24 0 -60 -41.5
t-36 -91.5z" />
    <glyph glyph-name="nine" unicode="9" horiz-adv-x="567" 
d="M74 17l32 86q45 -24 101 -24q90 0 145 71t67 172h-2q-21 -32 -64.5 -50.5t-91.5 -18.5q-99 0 -161 65.5t-62 163.5q0 104 64 170t163 66q114 0 189 -89.5t75 -235.5q0 -72 -19.5 -141.5t-57 -129.5t-100 -97t-141.5 -37q-37 0 -71.5 7t-49.5 15zM281 336q58 0 100.5 30
t42.5 69q0 71 -46.5 131.5t-111.5 60.5q-60 0 -95 -41t-35 -104q0 -64 39 -105t106 -41z" />
    <glyph glyph-name="colon" unicode=":" horiz-adv-x="294" 
d="M98 403v103h99v-103h-99zM98 0v103h99v-103h-99z" />
    <glyph glyph-name="semicolon" unicode=";" horiz-adv-x="294" 
d="M98 403v103h99v-103h-99zM45 -101l51 206h97l-73 -206h-75z" />
    <glyph glyph-name="less" unicode="&#x3c;" 
d="M67 252v66l466 208v-89l-358 -151v-2l358 -151v-89z" />
    <glyph glyph-name="equal" unicode="=" 
d="M68 340v78h477v-78h-477zM68 151v78h477v-78h-477z" />
    <glyph glyph-name="greater" unicode="&#x3e;" 
d="M74 44v89l357 151v2l-357 151v89l466 -208v-66z" />
    <glyph glyph-name="question" unicode="?" horiz-adv-x="453" 
d="M149 194v47q0 42 17.5 76.5t42.5 58.5t50 46t42.5 49.5t17.5 58.5q0 42 -32.5 70.5t-81.5 28.5q-28 0 -56.5 -10.5t-42.5 -20.5l-15 -11l-54 69q7 7 21 17.5t60 28.5t94 18q87 0 148 -51t61 -132q0 -46 -18 -82.5t-44.5 -61t-52.5 -47t-44 -50.5t-18 -61v-41h-95zM147 0
v97h99v-97h-99z" />
    <glyph glyph-name="at" unicode="@" horiz-adv-x="762" 
d="M40 241q0 155 106 262.5t259 107.5q135 0 197.5 -57.5t62.5 -145.5v-283h72v-73h-273q-91 0 -149 55.5t-58 133.5q0 77 57.5 132t149.5 55h108q-2 45 -44.5 74t-117.5 29q-115 0 -194 -85.5t-79 -204.5q0 -121 79.5 -204t204.5 -83v-79q-166 0 -273.5 105.5t-107.5 260.5
zM355 242q0 -49 33 -83t83 -34h101v236h-99q-52 0 -85 -34.5t-33 -84.5z" />
    <glyph glyph-name="A" unicode="A" horiz-adv-x="665" 
d="M12 0v86h14q26 0 33 22l221 598h105l221 -598q7 -22 33 -22h15v-86h-56q-37 0 -53.5 11.5t-28.5 46.5l-53 145h-260l-53 -145q-13 -35 -29.5 -46.5t-53.5 -11.5h-55zM227 287h211l-77 215l-28 99h-2q-14 -62 -27 -99z" />
    <glyph glyph-name="B" unicode="B" horiz-adv-x="617" 
d="M102 64v556h-65v86h302q91 0 148 -48t57 -132q0 -55 -25 -94t-63 -58v-2q55 -16 85.5 -63t30.5 -108q0 -96 -64.5 -148.5t-162.5 -52.5h-179q-34 0 -49 15t-15 49zM202 409h138q46 0 74 30t28 77t-27.5 75.5t-76.5 28.5h-136v-211zM202 108q0 -22 22 -22h126
q56 0 87.5 32.5t31.5 87.5q0 54 -32.5 87.5t-86.5 33.5h-148v-219z" />
    <glyph glyph-name="C" unicode="C" horiz-adv-x="701" 
d="M34 359q0 153 101.5 256t252.5 103q39 0 82 -8.5t85.5 -25.5t70 -48t27.5 -71v-69h-92v40q0 41 -55 65t-116 24q-108 0 -180 -74t-72 -192q0 -116 73.5 -196.5t181.5 -80.5q39 0 76.5 10t63 24t45 28t28.5 24l10 10l54 -72q-4 -5 -12 -13t-34.5 -28t-56.5 -35.5
t-77.5 -28.5t-97.5 -13q-156 0 -257 106.5t-101 264.5z" />
    <glyph glyph-name="D" unicode="D" horiz-adv-x="715" 
d="M103 64v556h-65v86h286q163 0 260 -93.5t97 -258.5q0 -166 -97 -260t-260 -94h-157q-34 0 -49 15t-15 49zM203 108q0 -22 22 -22h92q120 0 190 70t70 198q0 127 -70.5 196.5t-189.5 69.5h-114v-512z" />
    <glyph glyph-name="E" unicode="E" horiz-adv-x="568" 
d="M103 64v556h-65v86h415q34 0 49 -15t15 -49v-89h-91v45q0 22 -22 22h-201v-221h247v-86h-247v-205q0 -22 22 -22h206q22 0 22 22v45h92v-89q0 -34 -15 -49t-49 -15h-314q-34 0 -49 15t-15 49z" />
    <glyph glyph-name="F" unicode="F" horiz-adv-x="513" 
d="M103 0v620h-65v86h389q34 0 49 -15t15 -49v-89h-91v45q0 22 -22 22h-175v-232h241v-86h-241v-302h-100z" />
    <glyph glyph-name="G" unicode="G" horiz-adv-x="736" 
d="M35 356q0 153 102.5 257.5t253.5 104.5q75 0 138 -22t89 -44l25 -21l-57 -73q-9 8 -24.5 19t-66 30t-102.5 19q-107 0 -180.5 -76.5t-73.5 -193.5q0 -121 73.5 -197.5t182.5 -76.5q35 0 69 9t56.5 22t40.5 26t27 22l8 9v71q0 22 -22 22h-43v86h93q34 0 49 -15t15 -49
v-285h-88v44l1 30h-2q-3 -3 -9.5 -9t-27.5 -21t-44.5 -26t-61.5 -20.5t-77 -9.5q-144 0 -244 103t-100 265z" />
    <glyph glyph-name="H" unicode="H" horiz-adv-x="765" 
d="M103 0v598q0 22 -22 22h-43v86h101q34 0 49 -15t15 -49v-247h359v247q0 34 15 49t49 15h101v-86h-43q-22 0 -22 -22v-598h-100v310h-359v-310h-100z" />
    <glyph glyph-name="I" unicode="I" horiz-adv-x="317" 
d="M42 0v86h69v534h-69v86h233v-86h-69v-534h69v-86h-233z" />
    <glyph glyph-name="J" unicode="J" horiz-adv-x="522" 
d="M22 203v35h100v-27q0 -68 32 -98.5t79 -30.5t78.5 30.5t31.5 94.5v391q0 22 -22 22h-173v86h231q34 0 49 -15t15 -49v-439q0 -107 -62 -161t-149 -54t-148.5 54.5t-61.5 160.5z" />
    <glyph glyph-name="K" unicode="K" horiz-adv-x="611" 
d="M103 0v598q0 22 -22 22h-43v86h101q34 0 49 -15t15 -49v-233h67q44 0 58 24l157 273h112l-171 -293q-9 -16 -19 -27.5t-15 -15.5l-6 -3v-2q20 -5 40 -44l106 -212q11 -23 50 -23h19v-86h-55q-43 0 -62 10t-36 43l-122 245q-14 26 -63 26h-60v-324h-100z" />
    <glyph glyph-name="L" unicode="L" horiz-adv-x="543" 
d="M103 64v534q0 22 -22 22h-43v86h101q34 0 49 -15t15 -49v-534q0 -22 22 -22h195q22 0 22 22v45h91v-89q0 -34 -15 -49t-49 -15h-302q-34 0 -49 15t-15 49z" />
    <glyph glyph-name="M" unicode="M" horiz-adv-x="857" 
d="M20 0v86h34q20 0 22 22l48 598h103l166 -374l35 -89h2q18 51 35 89l166 374h103l48 -598q2 -22 22 -22h33v-86h-89q-33 0 -47.5 15t-16.5 49l-29 373l-2 104h-2q-20 -66 -37 -104l-143 -310h-84l-143 310q-8 16 -17.5 42.5t-14.5 44.5l-6 18h-2q1 -63 -2 -105l-28 -373
q-2 -34 -16.5 -49t-48.5 -15h-89z" />
    <glyph glyph-name="N" unicode="N" horiz-adv-x="765" 
d="M38 0v86h43q22 0 22 22v598h91l314 -447l59 -96h2q-7 56 -7 96v383q0 34 15.5 49t49.5 15h100v-86h-43q-22 0 -22 -22v-598h-90l-315 447l-58 96h-2q6 -57 6 -96v-383q0 -34 -15 -49t-49 -15h-101z" />
    <glyph glyph-name="O" unicode="O" horiz-adv-x="793" 
d="M34 358q0 152 104.5 256t257.5 104t258 -104t105 -256q0 -156 -105 -263t-258 -107t-257.5 107t-104.5 263zM138 358q0 -116 75 -196t183 -80t183.5 80t75.5 196q0 113 -75.5 190t-183.5 77t-183 -77t-75 -190z" />
    <glyph glyph-name="P" unicode="P" horiz-adv-x="592" 
d="M103 0v620h-65v86h311q98 0 159.5 -60.5t61.5 -160.5t-62 -162t-159 -62h-146v-261h-100zM203 347h130q62 0 98 37t36 101q0 63 -35.5 99t-97.5 36h-131v-273z" />
    <glyph glyph-name="Q" unicode="Q" horiz-adv-x="793" 
d="M34 357q0 153 104 257t257 104q154 0 259 -104t105 -257q0 -131 -83 -232l81 -79l-60 -64l-81 81q-93 -75 -221 -75q-153 0 -257 107t-104 262zM138 357q0 -116 74.5 -195.5t182.5 -79.5q41 0 78.5 12t54.5 24l16 13l-78 76l60 65l77 -79q52 71 52 164q0 114 -75 190.5
t-185 76.5q-109 0 -183 -76.5t-74 -190.5z" />
    <glyph glyph-name="R" unicode="R" horiz-adv-x="618" 
d="M103 0v620h-65v86h308q94 0 152.5 -56t58.5 -151q0 -80 -40.5 -128.5t-86.5 -58.5v-2q18 -9 30 -32l85 -169q11 -23 50 -23h13v-86h-49q-43 0 -62 10t-36 43l-96 190q-13 24 -26.5 31t-43.5 7h-92v-281h-100zM203 367h130q57 0 89 34t32 94q0 59 -31.5 92t-87.5 33h-132
v-253z" />
    <glyph glyph-name="S" unicode="S" horiz-adv-x="533" 
d="M34 93l59 71q3 -3 8.5 -9t23.5 -20.5t37.5 -26t49 -20.5t58.5 -9q51 0 86 29t35 76q0 34 -25.5 61.5t-63 44.5t-82 39.5t-82 45t-63 62.5t-25.5 92q0 80 63.5 134.5t162.5 54.5q43 0 86 -11.5t79 -42.5t36 -76v-58h-92v33q0 27 -33 45.5t-76 18.5q-56 0 -90 -27t-34 -68
q0 -33 25 -59t63 -42t82 -37.5t82 -44.5t63 -64.5t25 -95.5q0 -84 -61 -142.5t-163 -58.5q-42 0 -81.5 11t-66 26t-47 30.5t-29.5 26.5z" />
    <glyph glyph-name="T" unicode="T" horiz-adv-x="636" 
d="M268 0v620h-142q-22 0 -22 -22v-45h-89v93q0 34 13 47t47 13h486q34 0 47 -13t13 -47v-93h-89v45q0 22 -22 22h-142v-620h-100z" />
    <glyph glyph-name="U" unicode="U" horiz-adv-x="728" 
d="M95 247v351q0 22 -22 22h-43v86h101q34 0 49 -15t15 -49v-391q0 -79 46 -124t123 -45t123 45.5t46 124.5v390q0 34 15.5 49t49.5 15h100v-86h-43q-22 0 -22 -22v-351q0 -116 -74 -187.5t-194 -71.5q-121 0 -195.5 71.5t-74.5 187.5z" />
    <glyph glyph-name="V" unicode="V" horiz-adv-x="668" 
d="M281 0l-222 598q-7 22 -33 22h-14v86h56q38 0 54.5 -11.5t28.5 -46.5l155 -435l27 -97h2q13 59 27 97l155 435q13 35 29 46.5t54 11.5h56v-86h-14q-26 0 -33 -22l-222 -598h-106z" />
    <glyph glyph-name="W" unicode="W" horiz-adv-x="968" 
d="M221 0l-155 598q-6 22 -34 22h-15v86h57q40 0 59 -12t28 -46l109 -454l14 -75h2q6 36 17 75l142 510h90l132 -510l15 -75h2q4 37 13 75l111 454q9 35 28 46.5t58 11.5h57v-86h-15q-28 0 -34 -22l-155 -598h-116l-120 446l-20 97h-2q-10 -51 -23 -96l-128 -447h-117z" />
    <glyph glyph-name="X" unicode="X" horiz-adv-x="591" 
d="M10 0l222 364l-142 231q-15 25 -46 25h-26v86h59q37 0 56 -10.5t38 -43.5l79 -134l45 -83h2q20 44 43 83l80 134q19 33 38 43.5t57 10.5h58v-86h-25q-18 0 -27.5 -4.5t-19.5 -20.5l-143 -231l223 -364h-113l-128 215l-45 80h-2q-20 -42 -43 -81l-127 -214h-113z" />
    <glyph glyph-name="Y" unicode="Y" horiz-adv-x="603" 
d="M252 0v308l-179 287q-15 25 -43 25h-20v86h46q37 0 56 -10t39 -44l107 -178l43 -79h2q19 40 43 79l106 178q20 34 39 44t56 10h46v-86h-19q-29 0 -44 -25l-178 -287v-308h-100z" />
    <glyph glyph-name="Z" unicode="Z" horiz-adv-x="582" 
d="M18 0v66l348 490q12 17 25.5 33.5t20.5 24.5l7 7v2q-19 -3 -53 -3h-227q-22 0 -22 -22v-45h-91v89q0 34 15 49t49 15h453v-65l-349 -491q-12 -17 -25 -33t-20 -23l-7 -8v-2q19 2 52 2h249q22 0 22 22v45h92v-89q0 -34 -15 -49t-49 -15h-475z" />
    <glyph glyph-name="bracketleft" unicode="[" horiz-adv-x="327" 
d="M97 -31v702q0 34 15 49t49 15h101v-73h-58q-22 0 -22 -22v-639q0 -22 22 -22h58v-74h-101q-34 0 -49 15t-15 49z" />
    <glyph glyph-name="backslash" unicode="\" horiz-adv-x="340" 
d="M259 -42l-254 786h86l254 -786h-86z" />
    <glyph glyph-name="bracketright" unicode="]" horiz-adv-x="327" 
d="M65 -21h58q22 0 22 22v639q0 22 -22 22h-58v73h101q34 0 49.5 -15t15.5 -49v-702q0 -34 -15.5 -49t-49.5 -15h-101v74z" />
    <glyph glyph-name="asciicircum" unicode="^" 
d="M69 247l200 459h63l199 -459h-87l-144 352l-143 -352h-88z" />
    <glyph glyph-name="underscore" unicode="_" horiz-adv-x="548" 
d="M5 0h538v-78h-538v78z" />
    <glyph glyph-name="grave" unicode="`" horiz-adv-x="379" 
d="M178 755l-95 127h98l73 -127h-76z" />
    <glyph glyph-name="a" unicode="a" horiz-adv-x="544" 
d="M37 142q0 39 16 69.5t44.5 48t59 29.5t69 17.5t63.5 7t53 1.5h22v5q0 66 -26 93.5t-86 27.5q-28 0 -55.5 -8.5t-27.5 -30.5v-29h-91v50q0 29 19.5 49.5t50.5 29.5t56 12.5t49 3.5q115 0 161.5 -52.5t46.5 -145.5v-215q0 -22 22 -22h41v-83h-91q-63 0 -63 58l2 30h-2
q-2 -4 -5 -11t-16.5 -24t-30.5 -30t-46 -24t-63 -11q-70 0 -121 41t-51 113zM135 147q0 -33 25 -57t70 -24q58 0 96.5 50.5t38.5 110.5v17h-25q-37 0 -64.5 -2.5t-64 -11t-56.5 -29.5t-20 -54z" />
    <glyph glyph-name="b" unicode="b" horiz-adv-x="600" 
d="M81 0v601q0 22 -22 22h-41v83h96q34 0 49 -15t15 -49v-165l-2 -42h2q2 3 5.5 9t17.5 20t31 25t46.5 20t62.5 9q101 0 161.5 -73t60.5 -192t-64.5 -192t-165.5 -73q-32 0 -60 9t-45 21t-30 24.5t-18 21.5l-6 9h-2q2 -16 2 -38v-35h-93zM176 251q0 -73 37.5 -126.5
t105.5 -53.5q62 0 104 48.5t42 132.5q0 82 -40 131.5t-104 49.5q-62 0 -103.5 -45.5t-41.5 -136.5z" />
    <glyph glyph-name="c" unicode="c" horiz-adv-x="533" 
d="M36 253q0 113 76 189t196 76q26 0 55 -5.5t58.5 -17.5t49 -35t19.5 -53v-52h-88v28q0 25 -30.5 38.5t-63.5 13.5q-75 0 -124 -50.5t-49 -130.5q0 -83 52 -131.5t126 -48.5q42 0 81.5 17.5t57.5 34.5l18 18l42 -69q-3 -4 -8.5 -9.5t-25.5 -20.5t-42 -26.5t-57 -21
t-73 -9.5q-119 0 -194.5 75t-75.5 190z" />
    <glyph glyph-name="d" unicode="d" horiz-adv-x="605" 
d="M37 253q0 120 64 192.5t165 72.5q33 0 61 -8t44.5 -19.5t29 -23t17.5 -19.5l4 -8h2q-2 15 -2 34v127q0 22 -22 22h-41v83h96q34 0 49 -15t15 -49v-537q0 -22 22 -22h41v-83h-93q-62 0 -62 54l1 26h-2q-2 -4 -5.5 -10t-17.5 -22t-31 -28t-47 -22t-65 -10q-102 0 -162.5 73
t-60.5 192zM279 72q62 0 104 45.5t42 136.5q0 73 -37.5 126.5t-106.5 53.5q-62 0 -103.5 -49t-41.5 -132q0 -82 39.5 -131.5t103.5 -49.5z" />
    <glyph glyph-name="e" unicode="e" horiz-adv-x="552" 
d="M36 253q0 119 72 192t182 73q103 0 160.5 -67t57.5 -170l-3 -40h-369q4 -78 54 -123.5t120 -45.5q39 0 76 15t54 29l18 15l42 -69q-8 -8 -24 -20.5t-67 -33t-104 -20.5q-119 0 -194 75.5t-75 189.5zM140 312h268q-2 61 -36 95t-83 34q-57 0 -97.5 -33.5t-51.5 -95.5z" />
    <glyph glyph-name="f" unicode="f" horiz-adv-x="325" 
d="M85 0v428h-63v78h63v17q0 48 14 83.5t34.5 55t48 31t49.5 15t45 3.5l37 -3v-83q-10 2 -25 2q-13 0 -25.5 -2t-28 -8.5t-26.5 -17.5t-18.5 -31t-7.5 -47v-15h120v-78h-120v-428h-97z" />
    <glyph glyph-name="g" unicode="g" horiz-adv-x="595" 
d="M37 265q0 112 59.5 182.5t162.5 70.5q35 0 65 -8t47 -20t29 -23.5t16 -19.5l5 -8h2v16q0 51 56 51h94v-83h-40q-22 0 -22 -20v-382q0 -60 -21.5 -106t-58.5 -72.5t-81 -39.5t-94 -13q-89 0 -173 42l33 78q62 -34 138 -34q71 0 115.5 34.5t44.5 106.5v34l2 32h-2
q-47 -77 -151 -77q-103 0 -164.5 73.5t-61.5 185.5zM282 90q59 0 97 41t38 133q0 170 -143 170q-65 0 -101.5 -44.5t-36.5 -122.5q0 -80 39.5 -128.5t106.5 -48.5z" />
    <glyph glyph-name="h" unicode="h" horiz-adv-x="622" 
d="M81 0v601q0 22 -22 22h-41v83h96q34 0 49 -15t15 -47v-197l-2 -42h2q20 44 69.5 78.5t118.5 34.5q173 0 173 -194v-219q0 -22 22 -22h41v-83h-95q-34 0 -49 15t-15 49v238q0 61 -20 94t-76 33q-57 0 -100.5 -34.5t-59.5 -90.5q-9 -26 -9 -67v-237h-97z" />
    <glyph glyph-name="i" unicode="i" horiz-adv-x="275" 
d="M92 605v101h87v-101h-87zM90 64v337q0 22 -22 22h-41v83h95q34 0 49 -15t15 -49v-337q0 -22 22 -22h41v-83h-95q-34 0 -49 15t-15 49z" />
    <glyph glyph-name="j" unicode="j" horiz-adv-x="286" 
d="M112 605v101h88v-101h-88zM-20 -121q9 -1 22 -1q17 0 33 4t34.5 14t29.5 34t11 59v412q0 22 -22 22h-41v83h96q34 0 49 -15t15 -49v-459q0 -59 -20.5 -100t-54 -58.5t-61.5 -24t-58 -6.5l-33 2v83z" />
    <glyph glyph-name="k" unicode="k" horiz-adv-x="525" 
d="M81 0v601q0 22 -22 22h-41v83h96q35 0 49.5 -12.5t14.5 -45.5v-328h45q36 0 53 22l117 164h111l-137 -188q-10 -14 -19.5 -23.5t-13.5 -12.5l-5 -2v-2q17 -6 34 -38l75 -137q10 -20 43 -20h31v-83h-70q-35 0 -51.5 9t-32.5 38l-92 170q-12 21 -50 21h-38v-238h-97z" />
    <glyph glyph-name="l" unicode="l" horiz-adv-x="268" 
d="M83 64v537q0 22 -22 22h-41v83h96q34 0 49 -15t15 -49v-537q0 -22 22 -22h41v-83h-96q-34 0 -49 15t-15 49z" />
    <glyph glyph-name="m" unicode="m" horiz-adv-x="937" 
d="M85 0v401q0 22 -22 22h-41v83h93q64 0 64 -56v-19l-1 -29h2q19 47 67.5 81.5t105.5 34.5q126 0 152 -115h2q22 48 71.5 81.5t108.5 33.5q167 0 167 -194v-219q0 -22 22 -22h41v-83h-96q-34 0 -49 15t-15 49v239q0 61 -18.5 94t-70.5 33q-50 0 -89 -37.5t-53 -92.5
q-8 -34 -8 -69v-231h-97v303q0 60 -17.5 93.5t-69.5 33.5q-53 0 -91.5 -38.5t-53.5 -95.5q-7 -28 -7 -65v-231h-97z" />
    <glyph glyph-name="n" unicode="n" horiz-adv-x="626" 
d="M85 0v401q0 22 -22 22h-41v83h93q64 0 64 -56v-19l-2 -29h2q20 43 68 79.5t122 36.5q89 0 131.5 -48t42.5 -146v-219q0 -22 22 -22h41v-83h-96q-34 0 -49 15t-15 49v238q0 61 -19.5 94t-75.5 33q-58 0 -101.5 -34.5t-58.5 -89.5q-9 -26 -9 -68v-237h-97z" />
    <glyph glyph-name="o" unicode="o" horiz-adv-x="617" 
d="M36 254q0 114 79 189t193 75q115 0 194 -75t79 -189t-79.5 -190t-193.5 -76t-193 76t-79 190zM135 254q0 -78 50.5 -130t122.5 -52q73 0 123.5 51.5t50.5 130.5q0 78 -50.5 129t-123.5 51q-72 0 -122.5 -51t-50.5 -129z" />
    <glyph glyph-name="p" unicode="p" horiz-adv-x="604" 
d="M85 -200v601q0 22 -22 22h-41v83h91q62 0 62 -51l-1 -27h2q2 4 5.5 10t17.5 21.5t31.5 27.5t48 21.5t65.5 9.5q101 0 162 -73t61 -192t-65 -192t-165 -73q-31 0 -58.5 8.5t-44.5 20t-29.5 23.5t-17.5 20l-5 9h-2q2 -18 2 -44v-225h-97zM179 251q0 -73 38 -126.5
t105 -53.5q62 0 104 48.5t42 132.5q0 82 -39.5 131.5t-103.5 49.5q-62 0 -104 -45.5t-42 -136.5z" />
    <glyph glyph-name="q" unicode="q" horiz-adv-x="604" 
d="M38 253q0 120 63.5 192.5t164.5 72.5q34 0 63 -9t46.5 -21.5t30.5 -25t18 -21.5l5 -9h2q-1 11 -1 26q0 48 62 48h91v-83h-41q-22 0 -22 -22v-601h-97v229l2 44h-2q-2 -3 -5.5 -9t-17.5 -20.5t-31 -26t-46 -20.5t-63 -9q-101 0 -161.5 73t-60.5 192zM280 72
q62 0 103.5 45.5t41.5 136.5q0 73 -37.5 126.5t-105.5 53.5q-62 0 -104 -48.5t-42 -132.5q0 -82 40 -131.5t104 -49.5z" />
    <glyph glyph-name="r" unicode="r" horiz-adv-x="387" 
d="M85 0v401q0 22 -22 22h-41v83h92q65 0 65 -59v-32l-2 -35h2q19 58 61.5 95t98.5 37l26 -2v-96q-13 3 -29 3q-47 0 -86 -32t-56 -87q-12 -39 -12 -91v-207h-97z" />
    <glyph glyph-name="s" unicode="s" horiz-adv-x="454" 
d="M27 77l50 65q2 -3 7 -8t20 -18t32 -23t42.5 -18t51.5 -8q38 0 63 17t25 48q0 25 -28.5 44t-69 34.5t-81 34.5t-69 52.5t-28.5 78.5q0 69 53 105.5t135 36.5q60 0 113 -23.5t53 -74.5v-48h-87v25q0 21 -24.5 32t-51.5 11q-44 0 -69 -15.5t-25 -44.5q0 -26 28.5 -45.5
t69 -34t81 -32.5t69 -51.5t28.5 -80.5q0 -67 -52.5 -107.5t-133.5 -40.5q-38 0 -72.5 9t-57 22t-40 26.5t-25.5 22.5z" />
    <glyph glyph-name="t" unicode="t" horiz-adv-x="352" 
d="M89 185v243h-66v78h68v139h95v-139h121v-78h-121v-232q0 -36 11 -60.5t29 -35t34 -14.5t33 -4l23 2v-86q-13 -2 -34 -2q-23 0 -45 3t-50 15t-48.5 31.5t-35 55.5t-14.5 84z" />
    <glyph glyph-name="u" unicode="u" horiz-adv-x="621" 
d="M83 182v219q0 22 -22 22h-41v83h95q34 0 49.5 -15t15.5 -47v-240q0 -61 19.5 -93.5t74.5 -32.5q75 0 120 56t45 135v237h97v-401q0 -22 22 -22h41v-83h-93q-64 0 -64 56v19l1 29h-2q-19 -44 -68.5 -80t-117.5 -36q-86 0 -129 47.5t-43 146.5z" />
    <glyph glyph-name="v" unicode="v" horiz-adv-x="532" 
d="M210 0l-156 403q-8 20 -31 20h-10v83h50q34 0 50 -10.5t27 -40.5l109 -291l18 -66h2q8 38 18 66l108 291q11 30 27.5 40.5t49.5 10.5h47v-83h-10q-25 0 -33 -20l-154 -403h-112z" />
    <glyph glyph-name="w" unicode="w" horiz-adv-x="834" 
d="M188 0l-133 403q-6 20 -31 20h-14v83h61q34 0 49.5 -11t25.5 -43l90 -301l12 -54h2q6 28 14 54l109 353h89l110 -353l13 -54h2q4 28 12 54l89 301q10 32 26 43t50 11h60v-83h-14q-25 0 -31 -20l-133 -403h-109l-105 325l-14 55h-2q-6 -29 -14 -55l-104 -325h-110z" />
    <glyph glyph-name="x" unicode="x" horiz-adv-x="494" 
d="M15 0l171 260l-97 144q-13 19 -43 19h-28v83h62q35 0 51.5 -9.5t36.5 -41.5l62 -98l16 -32h2q9 19 17 32l61 98q19 32 35.5 41.5t52.5 9.5h63v-83h-29q-31 0 -43 -18l-97 -145l171 -260h-109l-107 165l-15 27h-2q-8 -15 -16 -27l-105 -165h-110z" />
    <glyph glyph-name="y" unicode="y" horiz-adv-x="546" 
d="M45 -90q0 -1 9 -9.5t27.5 -17.5t37.5 -9q58 0 89 73l23 55l-173 401q-9 20 -32 20h-12v83h57q31 0 45.5 -10.5t26.5 -40.5l115 -285l18 -61h2q7 35 17 61l105 285q11 30 27 40.5t47 10.5h58v-83h-13q-23 0 -32 -20l-200 -494q-23 -58 -66 -88.5t-97 -30.5q-33 0 -63 12.5
t-43 25.5l-13 12z" />
    <glyph glyph-name="z" unicode="z" horiz-adv-x="505" 
d="M33 0v56l259 320l42 47v2q-16 -2 -49 -2h-138q-22 0 -22 -22v-34h-89v75q0 34 15 49t49 15h362v-56l-260 -321l-42 -46v-2q16 2 49 2h162q22 0 22 22v34h88v-75q0 -34 -15 -49t-49 -15h-384z" />
    <glyph glyph-name="braceleft" unicode="{" horiz-adv-x="339" 
d="M114 77v96q0 29 -9 50.5t-21 32t-24.5 17t-21.5 7.5l-9 2v86q3 0 9 1t20.5 8t26 18t20.5 33t9 51v84q0 45 12.5 78.5t30 51t42 28.5t42 13.5t35.5 2.5l23 -1v-74h-14q-13 0 -24.5 -3.5t-27 -13t-25 -32t-9.5 -56.5v-103q0 -28 -8.5 -51t-20.5 -36.5t-23.5 -23
t-20.5 -13.5l-8 -3v-2q3 -1 8.5 -3t19.5 -12t24.5 -23t19.5 -36.5t9 -52.5v-115q0 -34 9.5 -56.5t25 -32t27 -13t24.5 -3.5h14v-74q-9 -2 -23 -2q-18 0 -35.5 2.5t-42 13.5t-42 28.5t-30 51.5t-12.5 79z" />
    <glyph glyph-name="bar" unicode="|" horiz-adv-x="299" 
d="M107 -159v951h85v-951h-85z" />
    <glyph glyph-name="braceright" unicode="}" horiz-adv-x="339" 
d="M40 -22h14q13 0 24.5 3.5t27 13t25 32t9.5 56.5v115q0 29 8.5 52.5t20 37t23.5 22.5t20 12l9 3v2q-3 1 -8.5 3.5t-19.5 12.5t-24.5 23t-19.5 36.5t-9 51.5v103q0 34 -9.5 56.5t-25 32t-27 13t-24.5 3.5h-14v74q9 1 23 1q18 0 35.5 -2.5t42 -13.5t42 -28.5t30 -51
t12.5 -78.5v-84q0 -29 9 -51t21.5 -33t24.5 -17.5t21 -7.5l9 -2v-86q-3 0 -9 -1t-20.5 -8t-26 -17.5t-20.5 -32t-9 -50.5v-96q0 -45 -12.5 -79t-30 -51.5t-42 -28.5t-42 -13.5t-35.5 -2.5l-23 2v74z" />
    <glyph glyph-name="asciitilde" unicode="~" 
d="M62 204q0 85 36.5 127t103.5 42q35 0 63.5 -15.5t43.5 -33.5t37 -33.5t47 -15.5q36 0 51.5 28t15.5 66h79q0 -169 -139 -169q-35 0 -63.5 15t-43.5 33.5t-37.5 33.5t-47.5 15q-35 0 -51 -28t-16 -65h-79z" />
    <glyph glyph-name="exclamdown" unicode="&#xa1;" horiz-adv-x="314" 
d="M107 409v97h99v-97h-99zM107 -200l7 512h87l6 -512h-100z" />
    <glyph glyph-name="cent" unicode="&#xa2;" horiz-adv-x="565" 
d="M259 -38v111q-94 13 -149 91.5t-55 188.5q0 111 55 189.5t149 91.5v110h73v-110q63 -10 109.5 -50.5t71.5 -104.5l-88 -34q-41 99 -126 99q-68 0 -106.5 -53.5t-38.5 -137.5q0 -86 38 -138t107 -52q86 0 126 99l88 -35q-25 -61 -71 -104t-110 -50v-111h-73z" />
    <glyph glyph-name="sterling" unicode="&#xa3;" horiz-adv-x="584" 
d="M50 0v86h61v233h-44v70h44v136q0 83 61.5 138t155.5 55q45 0 86.5 -16t61.5 -32l19 -16l-57 -69q-48 43 -109 43q-54 0 -86 -30.5t-32 -76.5v-132h184v-70h-184v-233h216q22 0 22 22v45h92v-89q0 -34 -15.5 -49t-49.5 -15h-426z" />
    <glyph glyph-name="yen" unicode="&#xa5;" horiz-adv-x="614" 
d="M96 204v63h161v41l-28 44h-135v63h94v2l-112 181q-14 22 -45 22h-16v86h44q37 0 57 -10.5t40 -43.5l107 -178l43 -78h2q20 39 43 78l106 178q20 34 40 44t58 10h44v-86h-17q-31 0 -45 -22l-111 -181v-2h91v-63h-133l-27 -44v-41h160v-63h-160v-204h-100v204h-161z" />
    <glyph glyph-name="section" unicode="&#xa7;" horiz-adv-x="459" 
d="M152 111l-70 390q-6 23 -6 46q0 75 51 123t138 48q38 0 73.5 -13t51.5 -25l16 -13l-46 -64q-40 34 -95 34q-47 0 -77 -26t-30 -75q0 -18 6 -40l68 -385h-80zM61 -11l44 67q41 -37 97 -37q46 0 76 27.5t30 77.5q0 20 -6 45l-66 376h79l70 -390q5 -27 5 -45q0 -76 -51 -124
t-137 -48q-39 0 -74 13t-51 25z" />
    <glyph glyph-name="dieresis" unicode="&#xa8;" horiz-adv-x="501" 
d="M307 781v101h73v-101h-73zM142 781v101h74v-101h-74z" />
    <glyph glyph-name="copyright" unicode="&#xa9;" horiz-adv-x="787" 
d="M37 353q0 152 103.5 258.5t251.5 106.5q149 0 253.5 -106.5t104.5 -258.5t-104.5 -258.5t-253.5 -106.5q-148 0 -251.5 106.5t-103.5 258.5zM110 353q0 -125 81.5 -211t200.5 -86q121 0 203 86t82 211t-82 211t-203 86q-119 0 -200.5 -86t-81.5 -211zM202 352
q0 82 54.5 141t142.5 59q32 0 60.5 -10t46.5 -25t31.5 -29.5t18.5 -24.5l6 -10l-61 -33q-4 7 -11.5 17.5t-33 28t-54.5 17.5q-57 0 -90.5 -38.5t-33.5 -92.5q0 -56 33 -93.5t91 -37.5q18 0 35 6.5t28.5 15.5t19.5 18.5t12 16.5l4 6l61 -33q-2 -4 -6 -10.5t-18.5 -24
t-31.5 -30.5t-46 -23.5t-61 -10.5q-88 0 -142.5 58.5t-54.5 141.5z" />
    <glyph glyph-name="ordfeminine" unicode="&#xaa;" horiz-adv-x="415" 
d="M164 383q-45 0 -77 26.5t-32 72.5q0 107 184 107h14q-1 37 -15 51.5t-46 14.5q-42 0 -42 -17v-19h-70v40q0 17 13 29.5t32.5 18t36 7.5t31.5 2q73 0 102.5 -33.5t29.5 -92.5v-126q0 -11 10 -11h28v-64h-58q-42 0 -46 37l-1 10h-2q-1 -2 -3 -5.5t-10 -13t-18 -16.5
t-26.5 -12.5t-34.5 -5.5zM179 442q33 0 52.5 28t21.5 68h-10q-114 0 -114 -53q0 -18 13 -30.5t37 -12.5zM54 265v57h312v-57h-312z" />
    <glyph glyph-name="guillemotleft" unicode="&#xab;" horiz-adv-x="567" 
d="M243 282l164 206h97l-164 -206l164 -205h-97zM206 77l-164 205l164 206h97l-164 -206l164 -205h-97z" />
    <glyph glyph-name="logicalnot" unicode="&#xac;" 
d="M68 340v78h477v-267h-81v189h-396z" />
    <glyph glyph-name="registered" unicode="&#xae;" horiz-adv-x="787" 
d="M37 353q0 152 103.5 258.5t251.5 106.5q149 0 253.5 -106.5t104.5 -258.5t-104.5 -258.5t-253.5 -106.5q-148 0 -251.5 106.5t-103.5 258.5zM110 353q0 -125 81.5 -211t200.5 -86q121 0 203 86t82 211t-82 211t-203 86q-119 0 -200.5 -86t-81.5 -211zM270 166v323h-34v54
h179q54 0 86.5 -31.5t32.5 -83.5q0 -40 -21 -66.5t-48 -33.5v-2q12 -3 21 -20l39 -75q8 -13 24 -13h11v-52h-38q-23 0 -34 5t-20 23l-52 99q-10 19 -34 19h-41v-146h-71zM341 364h60q28 0 44.5 17t16.5 47q0 29 -16.5 45t-44.5 16h-60v-125z" />
    <glyph glyph-name="macron" unicode="&#xaf;" horiz-adv-x="464" 
d="M108 784v68h254v-68h-254z" />
    <glyph glyph-name="macron" unicode="&#x2c9;" horiz-adv-x="464" 
d="M108 784v68h254v-68h-254z" />
    <glyph glyph-name="degree" unicode="&#xb0;" horiz-adv-x="397" 
d="M198 422q-63 0 -107 43t-44 105q0 61 44 104.5t107 43.5t107.5 -43.5t44.5 -104.5t-44.5 -104.5t-107.5 -43.5zM198 496q31 0 52.5 21.5t21.5 52.5t-21.5 53t-52.5 22t-52.5 -22t-21.5 -53t21.5 -52.5t52.5 -21.5z" />
    <glyph glyph-name="plusminus" unicode="&#xb1;" 
d="M42 246v78h224v246h82v-246h223v-78h-223v-246h-82v246h-224zM58 -95h497v-78h-497v78z" />
    <glyph glyph-name="twosuperior" unicode="&#xb2;" horiz-adv-x="423" 
d="M99 266q-27 0 -37.5 12t-10.5 47q0 31 10 55.5t31 44t38 31t45 27.5q31 17 47 28t30.5 31t14.5 43q0 26 -18 42.5t-48 16.5q-25 0 -41.5 -10.5t-16.5 -24.5v-24h-71v44q0 41 43 63.5t87 22.5q63 0 102.5 -36t39.5 -94q0 -31 -10.5 -55.5t-33.5 -44t-39 -30t-47 -27.5
q-28 -16 -43 -26t-28.5 -27t-13.5 -36q0 -6 9 -6h149q6 0 6 7v33h70v-61q0 -46 -46 -46h-218z" />
    <glyph glyph-name="threesuperior" unicode="&#xb3;" horiz-adv-x="423" 
d="M208 258q-42 0 -81 20t-57 40l-18 20l53 49q5 -6 13.5 -16t35.5 -26t54 -16q31 0 53.5 20.5t22.5 51.5t-23 49t-58 18h-34l-12 44l84 106l22 23v2q-17 -2 -34 -2h-76q-9 0 -9 -10v-26h-71v53q0 27 10 37.5t38 10.5h232v-51l-104 -127q46 -6 79 -41.5t33 -86.5
q0 -62 -45 -102t-108 -40z" />
    <glyph glyph-name="acute" unicode="&#xb4;" horiz-adv-x="388" 
d="M119 755l73 127h98l-95 -127h-76z" />
    <glyph glyph-name="mu" unicode="&#xb5;" horiz-adv-x="621" 
d="M20 423v83h95q34 0 49.5 -15t15.5 -47v-240q0 -61 19.5 -93.5t74.5 -32.5q75 0 120 56t45 135v237h97v-401q0 -22 22 -22h41v-83h-93q-64 0 -64 56v19l1 29h-2q-2 -5 -6 -12.5t-19.5 -27.5t-35 -35.5t-53 -28t-72.5 -12.5q-30 0 -52.5 8t-30.5 16l-8 7h-2q7 -49 7 -78
v-141h-86v601q0 22 -22 22h-41z" />
    <glyph glyph-name="mu" unicode="&#x3bc;" horiz-adv-x="621" 
d="M20 423v83h95q34 0 49.5 -15t15.5 -47v-240q0 -61 19.5 -93.5t74.5 -32.5q75 0 120 56t45 135v237h97v-401q0 -22 22 -22h41v-83h-93q-64 0 -64 56v19l1 29h-2q-2 -5 -6 -12.5t-19.5 -27.5t-35 -35.5t-53 -28t-72.5 -12.5q-30 0 -52.5 8t-30.5 16l-8 7h-2q7 -49 7 -78
v-141h-86v601q0 22 -22 22h-41z" />
    <glyph glyph-name="paragraph" unicode="&#xb6;" horiz-adv-x="599" 
d="M278 -50v291q-97 0 -167 67.5t-70 165.5t69.5 165t166.5 67h272v-86h-196v-670h-75zM415 -50v613h74v-613h-74z" />
    <glyph glyph-name="periodcentered" unicode="&#xb7;" horiz-adv-x="240" 
d="M70 239v103h99v-103h-99z" />
    <glyph glyph-name="periodcentered" unicode="&#x2219;" horiz-adv-x="240" 
d="M70 239v103h99v-103h-99z" />
    <glyph glyph-name="cedilla" unicode="&#xb8;" horiz-adv-x="416" 
d="M160 23l49 -10v-8l-11 -55q31 -4 51 -23t20 -50q0 -43 -29 -63.5t-73 -20.5q-14 0 -27.5 1.5t-20.5 3.5l-7 2v58q20 -7 43 -7q47 0 47 31t-53 31l-17 -1z" />
    <glyph glyph-name="onesuperior" unicode="&#xb9;" horiz-adv-x="423" 
d="M76 266v67h93v241l1 33h-2q-4 -10 -12 -17l-40 -38l-46 49l109 105h66v-373h92v-67h-261z" />
    <glyph glyph-name="ordmasculine" unicode="&#xba;" horiz-adv-x="456" 
d="M228 384q-72 0 -121.5 47.5t-49.5 120.5q0 71 49.5 118t120.5 47q72 0 122 -47t50 -118q0 -73 -49.5 -120.5t-121.5 -47.5zM228 448q41 0 69.5 29.5t28.5 74.5q0 44 -28.5 72.5t-69.5 28.5q-42 0 -70.5 -28.5t-28.5 -72.5q0 -45 28.5 -74.5t70.5 -29.5zM73 265v57h312
v-57h-312z" />
    <glyph glyph-name="guillemotright" unicode="&#xbb;" horiz-adv-x="567" 
d="M264 77l164 205l-164 206h97l164 -206l-164 -205h-97zM62 77l164 205l-164 206h97l164 -206l-164 -205h-97z" />
    <glyph glyph-name="onequarter" unicode="&#xbc;" horiz-adv-x="916" 
d="M284 0l287 706h80l-286 -706h-81zM78 266v67h93v241l1 33h-2q-5 -10 -12 -17l-40 -38l-46 49l108 105h67v-373h89v-67h-258zM517 113v46l191 282h87v-261h66v-67h-66v-113h-76v113h-202zM599 179q13 1 20 1h101v137l1 36h-2q-6 -14 -15 -27l-91 -129l-14 -16v-2z" />
    <glyph glyph-name="onehalf" unicode="&#xbd;" horiz-adv-x="916" 
d="M273 0l287 706h80l-287 -706h-80zM78 266v67h93v241l1 33h-2q-5 -10 -12 -17l-40 -38l-46 49l108 105h67v-373h89v-67h-258zM543 59q0 31 10 55.5t31 44.5t37.5 31t45.5 28q30 17 46 27.5t31 30.5t15 43q0 27 -18.5 43.5t-48.5 16.5q-24 0 -40.5 -10.5t-16.5 -24.5v-24
h-71v43q0 41 43 63.5t87 22.5q63 0 102.5 -36t39.5 -93q0 -31 -10.5 -55.5t-34 -45t-38.5 -30t-47 -27.5q-29 -16 -44 -26t-28.5 -27t-13.5 -36q0 -6 10 -6h148q6 0 6 7v34h71v-61q0 -25 -11 -36t-36 -11h-218q-27 0 -37 12t-10 47z" />
    <glyph glyph-name="threequarters" unicode="&#xbe;" horiz-adv-x="916" 
d="M282 0l287 706h80l-286 -706h-81zM216 258q-42 0 -81 20t-57 40l-18 20l52 49q5 -6 14 -16t36 -26t54 -16q31 0 53.5 20.5t22.5 51.5t-23 49t-58 18h-35l-12 44l85 106l21 23v2q-16 -2 -33 -2h-76q-9 0 -9 -10v-26h-71v53q0 27 10 37.5t37 10.5h233v-51l-105 -127
q46 -6 79.5 -41.5t33.5 -86.5q0 -62 -45 -102t-108 -40zM517 113v46l191 282h87v-261h66v-67h-66v-113h-76v113h-202zM599 179q13 1 20 1h101v137l1 36h-2q-6 -14 -15 -27l-91 -129l-14 -16v-2z" />
    <glyph glyph-name="questiondown" unicode="&#xbf;" horiz-adv-x="453" 
d="M207 409v97h99v-97h-99zM32 -28q0 46 18 82.5t44 61t52.5 47t44.5 51t18 61.5v37h94v-43q0 -42 -17.5 -77t-42.5 -58.5t-49.5 -45.5t-42 -49.5t-17.5 -58.5q0 -42 32.5 -71t81.5 -29q28 0 56.5 11t43.5 21l14 11l53 -69q-3 -3 -8 -7t-22 -15t-36 -19.5t-48 -15.5t-60 -7
q-87 0 -148 50.5t-61 131.5z" />
    <glyph glyph-name="Agrave" unicode="&#xc0;" horiz-adv-x="665" 
d="M12 0v86h14q26 0 33 22l221 598h105l221 -598q7 -22 33 -22h15v-86h-56q-37 0 -53.5 11.5t-28.5 46.5l-53 145h-260l-53 -145q-13 -35 -29.5 -46.5t-53.5 -11.5h-55zM227 287h211l-77 215l-28 99h-2q-14 -62 -27 -99zM294 755l-95 127h98l73 -127h-76z" />
    <glyph glyph-name="Aacute" unicode="&#xc1;" horiz-adv-x="665" 
d="M12 0v86h14q26 0 33 22l221 598h105l221 -598q7 -22 33 -22h15v-86h-56q-37 0 -53.5 11.5t-28.5 46.5l-53 145h-260l-53 -145q-13 -35 -29.5 -46.5t-53.5 -11.5h-55zM227 287h211l-77 215l-28 99h-2q-14 -62 -27 -99zM294 755l73 127h98l-95 -127h-76z" />
    <glyph glyph-name="Acircumflex" unicode="&#xc2;" horiz-adv-x="665" 
d="M12 0v86h14q26 0 33 22l221 598h105l221 -598q7 -22 33 -22h15v-86h-56q-37 0 -53.5 11.5t-28.5 46.5l-53 145h-260l-53 -145q-13 -35 -29.5 -46.5t-53.5 -11.5h-55zM227 287h211l-77 215l-28 99h-2q-14 -62 -27 -99zM201 755l87 127h89l88 -127h-79l-52 80h-2l-53 -80
h-78z" />
    <glyph glyph-name="Atilde" unicode="&#xc3;" horiz-adv-x="665" 
d="M12 0v86h14q26 0 33 22l221 598h105l221 -598q7 -22 33 -22h15v-86h-56q-37 0 -53.5 11.5t-28.5 46.5l-53 145h-260l-53 -145q-13 -35 -29.5 -46.5t-53.5 -11.5h-55zM227 287h211l-77 215l-28 99h-2q-14 -62 -27 -99zM163 756q0 127 103 127q29 0 52 -17t40.5 -34
t35.5 -17q21 0 30.5 19.5t9.5 45.5h66q0 -127 -103 -127q-29 0 -51.5 17t-40.5 34t-36 17q-21 0 -30.5 -19.5t-9.5 -45.5h-66z" />
    <glyph glyph-name="Adieresis" unicode="&#xc4;" horiz-adv-x="665" 
d="M12 0v86h14q26 0 33 22l221 598h105l221 -598q7 -22 33 -22h15v-86h-56q-37 0 -53.5 11.5t-28.5 46.5l-53 145h-260l-53 -145q-13 -35 -29.5 -46.5t-53.5 -11.5h-55zM227 287h211l-77 215l-28 99h-2q-14 -62 -27 -99zM379 781v101h73v-101h-73zM214 781v101h74v-101h-74z
" />
    <glyph glyph-name="Aring" unicode="&#xc5;" horiz-adv-x="665" 
d="M12 0v86h14q26 0 33 22l221 598h105l221 -598q7 -22 33 -22h15v-86h-56q-37 0 -53.5 11.5t-28.5 46.5l-53 145h-260l-53 -145q-13 -35 -29.5 -46.5t-53.5 -11.5h-55zM227 287h211l-77 215l-28 99h-2q-14 -62 -27 -99zM333 743q-34 0 -57.5 20.5t-23.5 53.5
q0 34 23.5 54.5t57.5 20.5q33 0 57 -20.5t24 -54.5q0 -33 -24 -53.5t-57 -20.5zM333 784q15 0 24.5 9.5t9.5 23.5q0 16 -9.5 25.5t-24.5 9.5t-24.5 -9.5t-9.5 -25.5q0 -14 9.5 -23.5t24.5 -9.5z" />
    <glyph glyph-name="AE" unicode="&#xc6;" horiz-adv-x="857" 
d="M12 0v86h11q25 0 34 22l237 598h448q34 0 49 -15t15 -49v-89h-91v45q0 22 -22 22h-195v-221h241v-86h-241v-205q0 -22 26 -22h196q22 0 22 22v45h92v-89q0 -34 -15.5 -49t-49.5 -15h-301q-39 0 -55 13.5t-16 50.5v249h-159l-95 -255q-13 -35 -29.5 -46.5t-53.5 -11.5h-48
zM271 399h126v221h-44z" />
    <glyph glyph-name="Ccedilla" unicode="&#xc7;" horiz-adv-x="701" 
d="M34 359q0 153 101.5 256t252.5 103q39 0 82 -8.5t85.5 -25.5t70 -48t27.5 -71v-69h-92v40q0 41 -55 65t-116 24q-108 0 -180 -74t-72 -192q0 -116 72.5 -196.5t179.5 -80.5q63 0 119.5 24t81.5 48l25 23l54 -71q-4 -5 -11.5 -12.5t-33 -27t-54.5 -35t-75.5 -29
t-95.5 -14.5l-8 -38q32 -4 52 -23t20 -50q0 -43 -29.5 -63.5t-72.5 -20.5q-14 0 -28 1.5t-21 3.5l-7 2v58q20 -7 43 -7q47 0 47 31t-52 31l-18 -1l20 78q-140 15 -226 118.5t-86 250.5z" />
    <glyph glyph-name="Egrave" unicode="&#xc8;" horiz-adv-x="568" 
d="M103 64v556h-65v86h415q34 0 49 -15t15 -49v-89h-91v45q0 22 -22 22h-201v-221h247v-86h-247v-205q0 -22 22 -22h206q22 0 22 22v45h92v-89q0 -34 -15 -49t-49 -15h-314q-34 0 -49 15t-15 49zM256 755l-95 127h98l73 -127h-76z" />
    <glyph glyph-name="Eacute" unicode="&#xc9;" horiz-adv-x="568" 
d="M103 64v556h-65v86h415q34 0 49 -15t15 -49v-89h-91v45q0 22 -22 22h-201v-221h247v-86h-247v-205q0 -22 22 -22h206q22 0 22 22v45h92v-89q0 -34 -15 -49t-49 -15h-314q-34 0 -49 15t-15 49zM256 755l73 127h98l-95 -127h-76z" />
    <glyph glyph-name="Ecircumflex" unicode="&#xca;" horiz-adv-x="568" 
d="M103 64v556h-65v86h415q34 0 49 -15t15 -49v-89h-91v45q0 22 -22 22h-201v-221h247v-86h-247v-205q0 -22 22 -22h206q22 0 22 22v45h92v-89q0 -34 -15 -49t-49 -15h-314q-34 0 -49 15t-15 49zM164 755l87 127h89l88 -127h-79l-52 80h-2l-53 -80h-78z" />
    <glyph glyph-name="Edieresis" unicode="&#xcb;" horiz-adv-x="568" 
d="M103 64v556h-65v86h415q34 0 49 -15t15 -49v-89h-91v45q0 22 -22 22h-201v-221h247v-86h-247v-205q0 -22 22 -22h206q22 0 22 22v45h92v-89q0 -34 -15 -49t-49 -15h-314q-34 0 -49 15t-15 49zM342 781v101h73v-101h-73zM177 781v101h74v-101h-74z" />
    <glyph glyph-name="Igrave" unicode="&#xcc;" horiz-adv-x="317" 
d="M42 0v86h69v534h-69v86h233v-86h-69v-534h69v-86h-233zM119 755l-95 127h98l73 -127h-76z" />
    <glyph glyph-name="Iacute" unicode="&#xcd;" horiz-adv-x="317" 
d="M42 0v86h69v534h-69v86h233v-86h-69v-534h69v-86h-233zM119 755l73 127h98l-95 -127h-76z" />
    <glyph glyph-name="Icircumflex" unicode="&#xce;" horiz-adv-x="317" 
d="M42 0v86h69v534h-69v86h233v-86h-69v-534h69v-86h-233zM26 755l87 127h89l88 -127h-79l-52 80h-2l-53 -80h-78z" />
    <glyph glyph-name="Idieresis" unicode="&#xcf;" horiz-adv-x="317" 
d="M42 0v86h69v534h-69v86h233v-86h-69v-534h69v-86h-233zM204 781v101h73v-101h-73zM39 781v101h74v-101h-74z" />
    <glyph glyph-name="Eth" unicode="&#xd0;" horiz-adv-x="715" 
d="M103 64v248h-49v82h49v226h-65v86h286q163 0 260 -93.5t97 -258.5q0 -166 -97 -260t-260 -94h-157q-34 0 -49 15t-15 49zM203 108q0 -22 22 -22h92q120 0 190 70t70 198q0 127 -70.5 196.5t-189.5 69.5h-114v-226h144v-82h-144v-204z" />
    <glyph glyph-name="Ntilde" unicode="&#xd1;" horiz-adv-x="765" 
d="M38 0v86h43q22 0 22 22v598h91l314 -447l59 -96h2q-7 56 -7 96v383q0 34 15.5 49t49.5 15h100v-86h-43q-22 0 -22 -22v-598h-90l-315 447l-58 96h-2q6 -57 6 -96v-383q0 -34 -15 -49t-49 -15h-101zM223 756q0 127 103 127q29 0 52 -17t40.5 -34t35.5 -17q21 0 30.5 19.5
t9.5 45.5h66q0 -127 -103 -127q-29 0 -51.5 17t-40.5 34t-36 17q-21 0 -30.5 -19.5t-9.5 -45.5h-66z" />
    <glyph glyph-name="Ograve" unicode="&#xd2;" horiz-adv-x="793" 
d="M34 358q0 152 104.5 256t257.5 104t258 -104t105 -256q0 -156 -105 -263t-258 -107t-257.5 107t-104.5 263zM138 358q0 -116 75 -196t183 -80t183.5 80t75.5 196q0 113 -75.5 190t-183.5 77t-183 -77t-75 -190zM354 755l-95 127h98l73 -127h-76z" />
    <glyph glyph-name="Oacute" unicode="&#xd3;" horiz-adv-x="793" 
d="M34 358q0 152 104.5 256t257.5 104t258 -104t105 -256q0 -156 -105 -263t-258 -107t-257.5 107t-104.5 263zM138 358q0 -116 75 -196t183 -80t183.5 80t75.5 196q0 113 -75.5 190t-183.5 77t-183 -77t-75 -190zM355 755l73 127h98l-95 -127h-76z" />
    <glyph glyph-name="Ocircumflex" unicode="&#xd4;" horiz-adv-x="793" 
d="M34 358q0 152 104.5 256t257.5 104t258 -104t105 -256q0 -156 -105 -263t-258 -107t-257.5 107t-104.5 263zM138 358q0 -116 75 -196t183 -80t183.5 80t75.5 196q0 113 -75.5 190t-183.5 77t-183 -77t-75 -190zM262 755l87 127h89l88 -127h-79l-52 80h-2l-53 -80h-78z
" />
    <glyph glyph-name="Otilde" unicode="&#xd5;" horiz-adv-x="793" 
d="M34 358q0 152 104.5 256t257.5 104t258 -104t105 -256q0 -156 -105 -263t-258 -107t-257.5 107t-104.5 263zM138 358q0 -116 75 -196t183 -80t183.5 80t75.5 196q0 113 -75.5 190t-183.5 77t-183 -77t-75 -190zM224 756q0 127 103 127q29 0 52 -17t40.5 -34t35.5 -17
q21 0 30.5 19.5t9.5 45.5h66q0 -127 -103 -127q-29 0 -51.5 17t-40.5 34t-36 17q-21 0 -30.5 -19.5t-9.5 -45.5h-66z" />
    <glyph glyph-name="Odieresis" unicode="&#xd6;" horiz-adv-x="793" 
d="M34 358q0 152 104.5 256t257.5 104t258 -104t105 -256q0 -156 -105 -263t-258 -107t-257.5 107t-104.5 263zM138 358q0 -116 75 -196t183 -80t183.5 80t75.5 196q0 113 -75.5 190t-183.5 77t-183 -77t-75 -190zM440 781v101h73v-101h-73zM275 781v101h74v-101h-74z" />
    <glyph glyph-name="multiply" unicode="&#xd7;" 
d="M47 55l206 230l-206 230l55 55l204 -228l205 228l55 -55l-207 -230l207 -230l-55 -55l-205 227l-204 -227z" />
    <glyph glyph-name="Oslash" unicode="&#xd8;" horiz-adv-x="795" 
d="M112 9l48 66q-59 52 -92 125t-33 158q0 152 105 256t257 104q102 0 188 -51l47 65l49 -34l-46 -65q58 -51 91.5 -122.5t33.5 -152.5q0 -156 -105 -263t-258 -107q-104 0 -188 53l-47 -66zM219 157l310 431q-63 37 -132 37q-108 0 -183 -77t-75 -190q0 -119 80 -201z
M265 119q60 -37 132 -37q108 0 183.5 80t75.5 196q0 114 -81 192z" />
    <glyph glyph-name="Ugrave" unicode="&#xd9;" horiz-adv-x="728" 
d="M95 247v351q0 22 -22 22h-43v86h101q34 0 49 -15t15 -49v-391q0 -79 46 -124t123 -45t123 45.5t46 124.5v390q0 34 15.5 49t49.5 15h100v-86h-43q-22 0 -22 -22v-351q0 -116 -74 -187.5t-194 -71.5q-121 0 -195.5 71.5t-74.5 187.5zM326 755l-95 127h98l73 -127h-76z" />
    <glyph glyph-name="Uacute" unicode="&#xda;" horiz-adv-x="728" 
d="M95 247v351q0 22 -22 22h-43v86h101q34 0 49 -15t15 -49v-391q0 -79 46 -124t123 -45t123 45.5t46 124.5v390q0 34 15.5 49t49.5 15h100v-86h-43q-22 0 -22 -22v-351q0 -116 -74 -187.5t-194 -71.5q-121 0 -195.5 71.5t-74.5 187.5zM326 755l73 127h98l-95 -127h-76z" />
    <glyph glyph-name="Ucircumflex" unicode="&#xdb;" horiz-adv-x="728" 
d="M95 247v351q0 22 -22 22h-43v86h101q34 0 49 -15t15 -49v-391q0 -79 46 -124t123 -45t123 45.5t46 124.5v390q0 34 15.5 49t49.5 15h100v-86h-43q-22 0 -22 -22v-351q0 -116 -74 -187.5t-194 -71.5q-121 0 -195.5 71.5t-74.5 187.5zM233 755l87 127h89l88 -127h-79
l-52 80h-2l-53 -80h-78z" />
    <glyph glyph-name="Udieresis" unicode="&#xdc;" horiz-adv-x="728" 
d="M95 247v351q0 22 -22 22h-43v86h101q34 0 49 -15t15 -49v-391q0 -79 46 -124t123 -45t123 45.5t46 124.5v390q0 34 15.5 49t49.5 15h100v-86h-43q-22 0 -22 -22v-351q0 -116 -74 -187.5t-194 -71.5q-121 0 -195.5 71.5t-74.5 187.5zM411 781v101h73v-101h-73zM246 781
v101h74v-101h-74z" />
    <glyph glyph-name="Yacute" unicode="&#xdd;" horiz-adv-x="603" 
d="M252 0v308l-179 287q-15 25 -43 25h-20v86h46q37 0 56 -10t39 -44l107 -178l43 -79h2q19 40 43 79l106 178q20 34 39 44t56 10h46v-86h-19q-29 0 -44 -25l-178 -287v-308h-100zM263 755l73 127h98l-95 -127h-76z" />
    <glyph glyph-name="Thorn" unicode="&#xde;" horiz-adv-x="596" 
d="M103 0v598q0 22 -22 22h-43v86h101q34 0 49 -15t15 -49v-56h146q98 0 159.5 -60.5t61.5 -160.5t-62 -162t-160 -62h-145v-141h-100zM203 227h130q62 0 98 37t36 101q0 63 -35.5 99t-97.5 36h-131v-273z" />
    <glyph glyph-name="germandbls" unicode="&#xdf;" horiz-adv-x="578" 
d="M19 0v83h38q22 0 22 22v425q0 88 64 138t152 50q82 0 136 -46.5t54 -114.5q0 -32 -15.5 -59.5t-34.5 -44t-34.5 -37.5t-15.5 -40q0 -18 18.5 -37t45 -37.5t52.5 -40t44.5 -53t18.5 -68.5q0 -72 -50 -112t-121 -40q-43 0 -81 12.5t-54 25.5l-17 12l27 75q51 -41 113 -41
q36 0 60 17.5t24 54.5q0 23 -18.5 45t-44.5 41t-52.5 38.5t-45 46.5t-18.5 58q0 27 16 52.5t34.5 42.5t34.5 40.5t16 47.5q0 32 -25 55t-70 23q-48 0 -82 -29t-34 -82v-459q0 -34 -15.5 -49t-49.5 -15h-92z" />
    <glyph glyph-name="agrave" unicode="&#xe0;" horiz-adv-x="544" 
d="M37 142q0 39 16 69.5t44.5 48t59 29.5t69 17.5t63.5 7t53 1.5h22v5q0 66 -26 93.5t-86 27.5q-28 0 -55.5 -8.5t-27.5 -30.5v-29h-91v50q0 29 19.5 49.5t50.5 29.5t56 12.5t49 3.5q115 0 161.5 -52.5t46.5 -145.5v-215q0 -22 22 -22h41v-83h-91q-63 0 -63 58l2 30h-2
q-2 -4 -5 -11t-16.5 -24t-30.5 -30t-46 -24t-63 -11q-70 0 -121 41t-51 113zM135 147q0 -33 25 -57t70 -24q58 0 96.5 50.5t38.5 110.5v17h-25q-37 0 -64.5 -2.5t-64 -11t-56.5 -29.5t-20 -54zM226 579l-95 127h98l73 -127h-76z" />
    <glyph glyph-name="aacute" unicode="&#xe1;" horiz-adv-x="544" 
d="M37 142q0 39 16 69.5t44.5 48t59 29.5t69 17.5t63.5 7t53 1.5h22v5q0 66 -26 93.5t-86 27.5q-28 0 -55.5 -8.5t-27.5 -30.5v-29h-91v50q0 29 19.5 49.5t50.5 29.5t56 12.5t49 3.5q115 0 161.5 -52.5t46.5 -145.5v-215q0 -22 22 -22h41v-83h-91q-63 0 -63 58l2 30h-2
q-2 -4 -5 -11t-16.5 -24t-30.5 -30t-46 -24t-63 -11q-70 0 -121 41t-51 113zM135 147q0 -33 25 -57t70 -24q58 0 96.5 50.5t38.5 110.5v17h-25q-37 0 -64.5 -2.5t-64 -11t-56.5 -29.5t-20 -54zM226 579l73 127h98l-95 -127h-76z" />
    <glyph glyph-name="acircumflex" unicode="&#xe2;" horiz-adv-x="544" 
d="M37 142q0 39 16 69.5t44.5 48t59 29.5t69 17.5t63.5 7t53 1.5h22v5q0 66 -26 93.5t-86 27.5q-28 0 -55.5 -8.5t-27.5 -30.5v-29h-91v50q0 29 19.5 49.5t50.5 29.5t56 12.5t49 3.5q115 0 161.5 -52.5t46.5 -145.5v-215q0 -22 22 -22h41v-83h-91q-63 0 -63 58l2 30h-2
q-2 -4 -5 -11t-16.5 -24t-30.5 -30t-46 -24t-63 -11q-70 0 -121 41t-51 113zM135 147q0 -33 25 -57t70 -24q58 0 96.5 50.5t38.5 110.5v17h-25q-37 0 -64.5 -2.5t-64 -11t-56.5 -29.5t-20 -54zM134 579l87 127h89l88 -127h-79l-52 80h-2l-53 -80h-78z" />
    <glyph glyph-name="atilde" unicode="&#xe3;" horiz-adv-x="544" 
d="M37 142q0 39 16 69.5t44.5 48t59 29.5t69 17.5t63.5 7t53 1.5h22v5q0 66 -26 93.5t-86 27.5q-28 0 -55.5 -8.5t-27.5 -30.5v-29h-91v50q0 29 19.5 49.5t50.5 29.5t56 12.5t49 3.5q115 0 161.5 -52.5t46.5 -145.5v-215q0 -22 22 -22h41v-83h-91q-63 0 -63 58l2 30h-2
q-2 -4 -5 -11t-16.5 -24t-30.5 -30t-46 -24t-63 -11q-70 0 -121 41t-51 113zM135 147q0 -33 25 -57t70 -24q58 0 96.5 50.5t38.5 110.5v17h-25q-37 0 -64.5 -2.5t-64 -11t-56.5 -29.5t-20 -54zM96 580q0 127 103 127q29 0 52 -17t40.5 -34t35.5 -17q21 0 30.5 19.5t9.5 45.5
h66q0 -127 -103 -127q-29 0 -51.5 17t-40.5 34t-36 17q-21 0 -30.5 -19.5t-9.5 -45.5h-66z" />
    <glyph glyph-name="adieresis" unicode="&#xe4;" horiz-adv-x="544" 
d="M37 142q0 39 16 69.5t44.5 48t59 29.5t69 17.5t63.5 7t53 1.5h22v5q0 66 -26 93.5t-86 27.5q-28 0 -55.5 -8.5t-27.5 -30.5v-29h-91v50q0 29 19.5 49.5t50.5 29.5t56 12.5t49 3.5q115 0 161.5 -52.5t46.5 -145.5v-215q0 -22 22 -22h41v-83h-91q-63 0 -63 58l2 30h-2
q-2 -4 -5 -11t-16.5 -24t-30.5 -30t-46 -24t-63 -11q-70 0 -121 41t-51 113zM135 147q0 -33 25 -57t70 -24q58 0 96.5 50.5t38.5 110.5v17h-25q-37 0 -64.5 -2.5t-64 -11t-56.5 -29.5t-20 -54zM312 605v101h73v-101h-73zM147 605v101h74v-101h-74z" />
    <glyph glyph-name="aring" unicode="&#xe5;" horiz-adv-x="544" 
d="M37 142q0 39 16 69.5t44.5 48t59 29.5t69 17.5t63.5 7t53 1.5h22v5q0 66 -26 93.5t-86 27.5q-28 0 -55.5 -8.5t-27.5 -30.5v-29h-91v50q0 29 19.5 49.5t50.5 29.5t56 12.5t49 3.5q115 0 161.5 -52.5t46.5 -145.5v-215q0 -22 22 -22h41v-83h-91q-63 0 -63 58l2 30h-2
q-2 -4 -5 -11t-16.5 -24t-30.5 -30t-46 -24t-63 -11q-70 0 -121 41t-51 113zM135 147q0 -33 25 -57t70 -24q58 0 96.5 50.5t38.5 110.5v17h-25q-37 0 -64.5 -2.5t-64 -11t-56.5 -29.5t-20 -54zM266 567q-34 0 -57.5 20.5t-23.5 53.5q0 34 23.5 54.5t57.5 20.5q33 0 57 -20.5
t24 -54.5q0 -33 -24 -53.5t-57 -20.5zM266 608q15 0 24.5 9.5t9.5 23.5q0 16 -9.5 25.5t-24.5 9.5t-24.5 -9.5t-9.5 -25.5q0 -14 9.5 -23.5t24.5 -9.5z" />
    <glyph glyph-name="ae" unicode="&#xe6;" horiz-adv-x="868" 
d="M37 142q0 170 302 170h25v9q0 66 -26.5 93t-85.5 27q-29 0 -56 -8.5t-27 -30.5v-29h-91v50q0 26 16.5 45.5t43.5 29.5t55.5 15t59.5 5q133 0 172 -89h2q60 89 180 89q100 0 157.5 -66.5t57.5 -165.5l-2 -45h-362q4 -81 50.5 -125t117.5 -44q39 0 76 15t54 29l18 15
l42 -69q-8 -8 -24 -20.5t-67 -33t-104 -20.5q-75 0 -131 33.5t-87 93.5h-2q-5 -14 -16 -31.5t-33 -41t-59 -39t-83 -15.5q-73 0 -123 41.5t-50 112.5zM462 312h262q-2 61 -36 95t-83 34q-56 0 -94.5 -34t-48.5 -95zM136 147q0 -34 24.5 -57.5t70.5 -23.5q59 0 96.5 50.5
t37.5 111.5v13h-47q-182 0 -182 -94z" />
    <glyph glyph-name="ccedilla" unicode="&#xe7;" horiz-adv-x="533" 
d="M36 253q0 113 76 189t196 76q26 0 55 -5.5t58.5 -17.5t49 -35t19.5 -53v-52h-88v28q0 25 -30.5 38.5t-63.5 13.5q-75 0 -124 -50.5t-49 -130.5q0 -83 52 -131.5t126 -48.5q42 0 81.5 17.5t57.5 34.5l18 18l42 -69q-3 -3 -8.5 -9t-25 -21t-41.5 -26.5t-57 -21t-73 -9.5
l-8 -38q32 -4 52 -23t20 -50q0 -43 -29.5 -63.5t-72.5 -20.5q-14 0 -28 1.5t-21 3.5l-7 2v58q20 -7 43 -7q47 0 47 31t-52 31l-18 -1l20 81q-97 16 -157 87.5t-60 172.5z" />
    <glyph glyph-name="egrave" unicode="&#xe8;" horiz-adv-x="552" 
d="M36 253q0 119 72 192t182 73q103 0 160.5 -67t57.5 -170l-3 -40h-369q4 -78 54 -123.5t120 -45.5q39 0 76 15t54 29l18 15l42 -69q-8 -8 -24 -20.5t-67 -33t-104 -20.5q-119 0 -194 75.5t-75 189.5zM140 312h268q-2 61 -36 95t-83 34q-57 0 -97.5 -33.5t-51.5 -95.5z
M247 579l-95 127h98l73 -127h-76z" />
    <glyph glyph-name="eacute" unicode="&#xe9;" horiz-adv-x="552" 
d="M36 253q0 119 72 192t182 73q103 0 160.5 -67t57.5 -170l-3 -40h-369q4 -78 54 -123.5t120 -45.5q39 0 76 15t54 29l18 15l42 -69q-8 -8 -24 -20.5t-67 -33t-104 -20.5q-119 0 -194 75.5t-75 189.5zM140 312h268q-2 61 -36 95t-83 34q-57 0 -97.5 -33.5t-51.5 -95.5z
M248 579l73 127h98l-95 -127h-76z" />
    <glyph glyph-name="ecircumflex" unicode="&#xea;" horiz-adv-x="552" 
d="M36 253q0 119 72 192t182 73q103 0 160.5 -67t57.5 -170l-3 -40h-369q4 -78 54 -123.5t120 -45.5q39 0 76 15t54 29l18 15l42 -69q-8 -8 -24 -20.5t-67 -33t-104 -20.5q-119 0 -194 75.5t-75 189.5zM140 312h268q-2 61 -36 95t-83 34q-57 0 -97.5 -33.5t-51.5 -95.5z
M155 579l87 127h89l88 -127h-79l-52 80h-2l-53 -80h-78z" />
    <glyph glyph-name="edieresis" unicode="&#xeb;" horiz-adv-x="552" 
d="M36 253q0 119 72 192t182 73q103 0 160.5 -67t57.5 -170l-3 -40h-369q4 -78 54 -123.5t120 -45.5q39 0 76 15t54 29l18 15l42 -69q-8 -8 -24 -20.5t-67 -33t-104 -20.5q-119 0 -194 75.5t-75 189.5zM140 312h268q-2 61 -36 95t-83 34q-57 0 -97.5 -33.5t-51.5 -95.5z
M333 605v101h73v-101h-73zM168 605v101h74v-101h-74z" />
    <glyph glyph-name="igrave" unicode="&#xec;" horiz-adv-x="277" 
d="M90 64v337q0 22 -22 22h-41v83h96q34 0 49 -15t15 -49v-337q0 -22 22 -22h41v-83h-95q-34 0 -49.5 15t-15.5 49zM92 579l-95 127h98l73 -127h-76z" />
    <glyph glyph-name="iacute" unicode="&#xed;" horiz-adv-x="277" 
d="M90 64v337q0 22 -22 22h-41v83h96q34 0 49 -15t15 -49v-337q0 -22 22 -22h41v-83h-95q-34 0 -49.5 15t-15.5 49zM92 579l73 127h98l-95 -127h-76z" />
    <glyph glyph-name="icircumflex" unicode="&#xee;" horiz-adv-x="277" 
d="M90 64v337q0 22 -22 22h-41v83h96q34 0 49 -15t15 -49v-337q0 -22 22 -22h41v-83h-95q-34 0 -49.5 15t-15.5 49zM-1 579l88 127h89l88 -127h-80l-52 81h-2l-52 -81h-79z" />
    <glyph glyph-name="idieresis" unicode="&#xef;" horiz-adv-x="277" 
d="M90 64v337q0 22 -22 22h-41v83h96q34 0 49 -15t15 -49v-337q0 -22 22 -22h41v-83h-95q-34 0 -49.5 15t-15.5 49zM162 605v101h74v-101h-74zM23 605v101h73v-101h-73z" />
    <glyph glyph-name="eth" unicode="&#xf0;" horiz-adv-x="575" 
d="M38 235q0 94 63.5 162.5t173.5 68.5q36 0 66.5 -10.5t43.5 -21.5l13 -10h2q-30 80 -109 133l-181 -80l-10 62l124 55q-61 31 -129 46l27 79q116 -26 207 -80l139 61l9 -61l-92 -42q144 -120 144 -322q0 -53 -14.5 -102t-43.5 -91.5t-80 -68t-116 -25.5q-109 0 -173 73.5
t-64 173.5zM136 233q0 -66 37.5 -113.5t103.5 -47.5q39 0 69.5 16.5t48 44.5t26.5 59.5t9 65.5q0 57 -38.5 93.5t-102.5 36.5q-73 0 -113 -45.5t-40 -109.5z" />
    <glyph glyph-name="ntilde" unicode="&#xf1;" horiz-adv-x="626" 
d="M85 0v401q0 22 -22 22h-41v83h93q64 0 64 -56v-19l-2 -29h2q20 43 68 79.5t122 36.5q89 0 131.5 -48t42.5 -146v-219q0 -22 22 -22h41v-83h-96q-34 0 -49 15t-15 49v238q0 61 -19.5 94t-75.5 33q-58 0 -101.5 -34.5t-58.5 -89.5q-9 -26 -9 -68v-237h-97zM153 580
q0 127 103 127q29 0 52 -17t40.5 -34t35.5 -17q21 0 30.5 19.5t9.5 45.5h66q0 -127 -103 -127q-29 0 -51.5 17t-40.5 34t-36 17q-21 0 -30.5 -19.5t-9.5 -45.5h-66z" />
    <glyph glyph-name="ograve" unicode="&#xf2;" horiz-adv-x="617" 
d="M36 254q0 114 79 189t193 75q115 0 194 -75t79 -189t-79.5 -190t-193.5 -76t-193 76t-79 190zM135 254q0 -78 50.5 -130t122.5 -52q73 0 123.5 51.5t50.5 130.5q0 78 -50.5 129t-123.5 51q-72 0 -122.5 -51t-50.5 -129zM269 579l-95 127h98l73 -127h-76z" />
    <glyph glyph-name="oacute" unicode="&#xf3;" horiz-adv-x="617" 
d="M36 254q0 114 79 189t193 75q115 0 194 -75t79 -189t-79.5 -190t-193.5 -76t-193 76t-79 190zM135 254q0 -78 50.5 -130t122.5 -52q73 0 123.5 51.5t50.5 130.5q0 78 -50.5 129t-123.5 51q-72 0 -122.5 -51t-50.5 -129zM269 579l73 127h98l-95 -127h-76z" />
    <glyph glyph-name="ocircumflex" unicode="&#xf4;" horiz-adv-x="617" 
d="M36 254q0 114 79 189t193 75q115 0 194 -75t79 -189t-79.5 -190t-193.5 -76t-193 76t-79 190zM135 254q0 -78 50.5 -130t122.5 -52q73 0 123.5 51.5t50.5 130.5q0 78 -50.5 129t-123.5 51q-72 0 -122.5 -51t-50.5 -129zM177 579l87 127h89l88 -127h-79l-52 80h-2l-53 -80
h-78z" />
    <glyph glyph-name="otilde" unicode="&#xf5;" horiz-adv-x="617" 
d="M36 254q0 114 79 189t193 75q115 0 194 -75t79 -189t-79.5 -190t-193.5 -76t-193 76t-79 190zM135 254q0 -78 50.5 -130t122.5 -52q73 0 123.5 51.5t50.5 130.5q0 78 -50.5 129t-123.5 51q-72 0 -122.5 -51t-50.5 -129zM139 580q0 127 103 127q29 0 52 -17t40.5 -34
t35.5 -17q21 0 30.5 19.5t9.5 45.5h66q0 -127 -103 -127q-29 0 -51.5 17t-40.5 34t-36 17q-21 0 -30.5 -19.5t-9.5 -45.5h-66z" />
    <glyph glyph-name="odieresis" unicode="&#xf6;" horiz-adv-x="617" 
d="M36 254q0 114 79 189t193 75q115 0 194 -75t79 -189t-79.5 -190t-193.5 -76t-193 76t-79 190zM135 254q0 -78 50.5 -130t122.5 -52q73 0 123.5 51.5t50.5 130.5q0 78 -50.5 129t-123.5 51q-72 0 -122.5 -51t-50.5 -129zM355 605v101h73v-101h-73zM190 605v101h74v-101
h-74z" />
    <glyph glyph-name="divide" unicode="&#xf7;" 
d="M253 435v91h94v-91h-94zM48 246v78h505v-78h-505zM253 44v91h94v-91h-94z" />
    <glyph glyph-name="oslash" unicode="&#xf8;" horiz-adv-x="617" 
d="M94 -3l38 52q-96 76 -96 205q0 114 79 189t193 75q74 0 136 -34l40 56l47 -34l-39 -54q89 -79 89 -198q0 -114 -79.5 -190t-193.5 -76q-70 0 -127 30l-39 -56zM186 124l206 288q-39 22 -84 22q-72 0 -122.5 -51t-50.5 -129q0 -77 51 -130zM233 90q35 -18 75 -18
q73 0 123.5 51.5t50.5 130.5q0 72 -46 120z" />
    <glyph glyph-name="ugrave" unicode="&#xf9;" horiz-adv-x="621" 
d="M83 182v219q0 22 -22 22h-41v83h95q34 0 49.5 -15t15.5 -47v-240q0 -61 19.5 -93.5t74.5 -32.5q75 0 120 56t45 135v237h97v-401q0 -22 22 -22h41v-83h-93q-64 0 -64 56v19l1 29h-2q-19 -44 -68.5 -80t-117.5 -36q-86 0 -129 47.5t-43 146.5zM265 579l-95 127h98l73 -127
h-76z" />
    <glyph glyph-name="uacute" unicode="&#xfa;" horiz-adv-x="621" 
d="M83 182v219q0 22 -22 22h-41v83h95q34 0 49.5 -15t15.5 -47v-240q0 -61 19.5 -93.5t74.5 -32.5q75 0 120 56t45 135v237h97v-401q0 -22 22 -22h41v-83h-93q-64 0 -64 56v19l1 29h-2q-19 -44 -68.5 -80t-117.5 -36q-86 0 -129 47.5t-43 146.5zM265 579l73 127h98l-95 -127
h-76z" />
    <glyph glyph-name="ucircumflex" unicode="&#xfb;" horiz-adv-x="621" 
d="M83 182v219q0 22 -22 22h-41v83h95q34 0 49.5 -15t15.5 -47v-240q0 -61 19.5 -93.5t74.5 -32.5q75 0 120 56t45 135v237h97v-401q0 -22 22 -22h41v-83h-93q-64 0 -64 56v19l1 29h-2q-19 -44 -68.5 -80t-117.5 -36q-86 0 -129 47.5t-43 146.5zM172 579l87 127h89l88 -127
h-79l-52 80h-2l-53 -80h-78z" />
    <glyph glyph-name="udieresis" unicode="&#xfc;" horiz-adv-x="621" 
d="M83 182v219q0 22 -22 22h-41v83h95q34 0 49.5 -15t15.5 -47v-240q0 -61 19.5 -93.5t74.5 -32.5q75 0 120 56t45 135v237h97v-401q0 -22 22 -22h41v-83h-93q-64 0 -64 56v19l1 29h-2q-19 -44 -68.5 -80t-117.5 -36q-86 0 -129 47.5t-43 146.5zM350 605v101h73v-101h-73z
M185 605v101h74v-101h-74z" />
    <glyph glyph-name="yacute" unicode="&#xfd;" horiz-adv-x="546" 
d="M45 -90q0 -1 9 -9.5t27.5 -17.5t37.5 -9q58 0 89 73l23 55l-173 401q-9 20 -32 20h-12v83h57q31 0 45.5 -10.5t26.5 -40.5l115 -285l18 -61h2q7 35 17 61l105 285q11 30 27 40.5t47 10.5h58v-83h-13q-23 0 -32 -20l-200 -494q-23 -58 -66 -88.5t-97 -30.5q-33 0 -63 12.5
t-43 25.5l-13 12zM234 579l73 127h98l-95 -127h-76z" />
    <glyph glyph-name="thorn" unicode="&#xfe;" horiz-adv-x="601" 
d="M82 -200v801q0 22 -22 22h-41v83h96q34 0 49 -15t15 -49v-163l-2 -44h2q48 83 159 83q103 0 164.5 -73.5t61.5 -191.5q0 -117 -61.5 -191t-164.5 -74q-33 0 -62 8.5t-46 20t-29 23.5t-17 20l-5 9h-2q2 -18 2 -44v-225h-97zM176 253q0 -93 42 -137t105 -44q64 0 103 50
t39 131t-39 131t-103 50q-65 0 -106 -43.5t-41 -137.5z" />
    <glyph glyph-name="ydieresis" unicode="&#xff;" horiz-adv-x="546" 
d="M45 -90q0 -1 9 -9.5t27.5 -17.5t37.5 -9q58 0 89 73l23 55l-173 401q-9 20 -32 20h-12v83h57q31 0 45.5 -10.5t26.5 -40.5l115 -285l18 -61h2q7 35 17 61l105 285q11 30 27 40.5t47 10.5h58v-83h-13q-23 0 -32 -20l-200 -494q-23 -58 -66 -88.5t-97 -30.5q-33 0 -63 12.5
t-43 25.5l-13 12zM319 605v101h73v-101h-73zM154 605v101h74v-101h-74z" />
    <glyph glyph-name="Amacron" unicode="&#x100;" horiz-adv-x="665" 
d="M12 0v86h14q26 0 33 22l221 598h105l221 -598q7 -22 33 -22h15v-86h-56q-37 0 -53.5 11.5t-28.5 46.5l-53 145h-260l-53 -145q-13 -35 -29.5 -46.5t-53.5 -11.5h-55zM227 287h211l-77 215l-28 99h-2q-14 -62 -27 -99zM206 784v68h254v-68h-254z" />
    <glyph glyph-name="amacron" unicode="&#x101;" horiz-adv-x="544" 
d="M37 142q0 39 16 69.5t44.5 48t59 29.5t69 17.5t63.5 7t53 1.5h22v5q0 66 -26 93.5t-86 27.5q-28 0 -55.5 -8.5t-27.5 -30.5v-29h-91v50q0 29 19.5 49.5t50.5 29.5t56 12.5t49 3.5q115 0 161.5 -52.5t46.5 -145.5v-215q0 -22 22 -22h41v-83h-91q-63 0 -63 58l2 30h-2
q-2 -4 -5 -11t-16.5 -24t-30.5 -30t-46 -24t-63 -11q-70 0 -121 41t-51 113zM135 147q0 -33 25 -57t70 -24q58 0 96.5 50.5t38.5 110.5v17h-25q-37 0 -64.5 -2.5t-64 -11t-56.5 -29.5t-20 -54zM139 608v68h254v-68h-254z" />
    <glyph glyph-name="Abreve" unicode="&#x102;" horiz-adv-x="665" 
d="M12 0v86h14q26 0 33 22l221 598h105l221 -598q7 -22 33 -22h15v-86h-56q-37 0 -53.5 11.5t-28.5 46.5l-53 145h-260l-53 -145q-13 -35 -29.5 -46.5t-53.5 -11.5h-55zM227 287h211l-77 215l-28 99h-2q-14 -62 -27 -99zM333 751q-51 0 -89.5 31t-38.5 86v14h67v-13
q0 -30 18 -45t43 -15q26 0 44 15.5t18 45.5v12h66v-14q0 -55 -38 -86t-90 -31z" />
    <glyph glyph-name="abreve" unicode="&#x103;" horiz-adv-x="544" 
d="M37 142q0 39 16 69.5t44.5 48t59 29.5t69 17.5t63.5 7t53 1.5h22v5q0 66 -26 93.5t-86 27.5q-28 0 -55.5 -8.5t-27.5 -30.5v-29h-91v50q0 29 19.5 49.5t50.5 29.5t56 12.5t49 3.5q115 0 161.5 -52.5t46.5 -145.5v-215q0 -22 22 -22h41v-83h-91q-63 0 -63 58l2 30h-2
q-2 -4 -5 -11t-16.5 -24t-30.5 -30t-46 -24t-63 -11q-70 0 -121 41t-51 113zM135 147q0 -33 25 -57t70 -24q58 0 96.5 50.5t38.5 110.5v17h-25q-37 0 -64.5 -2.5t-64 -11t-56.5 -29.5t-20 -54zM265 575q-51 0 -89.5 31t-38.5 86v14h67v-13q0 -30 18 -45t43 -15q26 0 44 15.5
t18 45.5v12h66v-14q0 -55 -38 -86t-90 -31z" />
    <glyph glyph-name="Aogonek" unicode="&#x104;" horiz-adv-x="665" 
d="M12 0v86h14q26 0 33 22l221 598h105l221 -598q7 -22 33 -22h15v-86q-64 -52 -64 -89q0 -17 14 -27.5t28 -13.5l13 -2l-23 -75q-5 0 -12.5 1.5t-27.5 7.5t-35.5 15.5t-28 28t-12.5 42.5q0 62 68 113v2q-24 3 -36 14.5t-22 40.5l-53 145h-260l-53 -145q-13 -35 -29.5 -46.5
t-53.5 -11.5h-55zM227 287h211l-77 215l-28 99h-2q-14 -62 -27 -99z" />
    <glyph glyph-name="aogonek" unicode="&#x105;" horiz-adv-x="544" 
d="M37 142q0 39 16 69.5t45 48t59.5 29.5t68.5 17.5t63.5 7t53.5 1.5h21v5q0 66 -26 93.5t-86 27.5q-28 0 -55.5 -9t-27.5 -30v-29h-91v50q0 29 19.5 49t50.5 29.5t56.5 13t48.5 3.5q115 0 161.5 -52.5t46.5 -145.5v-215q0 -22 22 -22h41v-83q-64 -54 -64 -89
q0 -17 14 -27.5t28 -13.5l13 -2l-22 -75q-5 0 -13 1.5t-28 7.5t-35.5 15.5t-28 28t-12.5 42.5q0 58 66 110v2h-17q-55 0 -55 55v5l2 28h-2q-2 -4 -5 -11t-16.5 -24t-30.5 -30t-47 -24t-65 -11q-70 0 -119.5 43t-49.5 111zM135 147q0 -33 25 -57t70 -24q58 0 96.5 50.5
t38.5 110.5v17h-25q-37 0 -64.5 -2.5t-64 -11t-56.5 -29.5t-20 -54z" />
    <glyph glyph-name="Cacute" unicode="&#x106;" horiz-adv-x="701" 
d="M34 359q0 153 101.5 256t252.5 103q39 0 82 -8.5t85.5 -25.5t70 -48t27.5 -71v-69h-92v40q0 41 -55 65t-116 24q-108 0 -180 -74t-72 -192q0 -116 73.5 -196.5t181.5 -80.5q39 0 76.5 10t63 24t45 28t28.5 24l10 10l54 -72q-4 -5 -12 -13t-34.5 -28t-56.5 -35.5
t-77.5 -28.5t-97.5 -13q-156 0 -257 106.5t-101 264.5zM345 755l73 127h98l-95 -127h-76z" />
    <glyph glyph-name="cacute" unicode="&#x107;" horiz-adv-x="533" 
d="M36 253q0 113 76 189t196 76q26 0 55 -5.5t58.5 -17.5t49 -35t19.5 -53v-52h-88v28q0 25 -30.5 38.5t-63.5 13.5q-75 0 -124 -50.5t-49 -130.5q0 -83 52 -131.5t126 -48.5q42 0 81.5 17.5t57.5 34.5l18 18l42 -69q-3 -4 -8.5 -9.5t-25.5 -20.5t-42 -26.5t-57 -21
t-73 -9.5q-119 0 -194.5 75t-75.5 190zM252 579l73 127h98l-95 -127h-76z" />
    <glyph glyph-name="Ccircumflex" unicode="&#x108;" horiz-adv-x="701" 
d="M34 359q0 153 101.5 256t252.5 103q39 0 82 -8.5t85.5 -25.5t70 -48t27.5 -71v-69h-92v40q0 41 -55 65t-116 24q-108 0 -180 -74t-72 -192q0 -116 73.5 -196.5t181.5 -80.5q39 0 76.5 10t63 24t45 28t28.5 24l10 10l54 -72q-4 -5 -12 -13t-34.5 -28t-56.5 -35.5
t-77.5 -28.5t-97.5 -13q-156 0 -257 106.5t-101 264.5zM253 755l87 127h89l88 -127h-79l-52 80h-2l-53 -80h-78z" />
    <glyph glyph-name="ccircumflex" unicode="&#x109;" horiz-adv-x="533" 
d="M36 253q0 113 76 189t196 76q26 0 55 -5.5t58.5 -17.5t49 -35t19.5 -53v-52h-88v28q0 25 -30.5 38.5t-63.5 13.5q-75 0 -124 -50.5t-49 -130.5q0 -83 52 -131.5t126 -48.5q42 0 81.5 17.5t57.5 34.5l18 18l42 -69q-3 -4 -8.5 -9.5t-25.5 -20.5t-42 -26.5t-57 -21
t-73 -9.5q-119 0 -194.5 75t-75.5 190zM160 579l87 127h89l88 -127h-79l-52 80h-2l-53 -80h-78z" />
    <glyph glyph-name="Cdotaccent" unicode="&#x10a;" horiz-adv-x="701" 
d="M34 359q0 153 101.5 256t252.5 103q39 0 82 -8.5t85.5 -25.5t70 -48t27.5 -71v-69h-92v40q0 41 -55 65t-116 24q-108 0 -180 -74t-72 -192q0 -116 73.5 -196.5t181.5 -80.5q39 0 76.5 10t63 24t45 28t28.5 24l10 10l54 -72q-4 -5 -12 -13t-34.5 -28t-56.5 -35.5
t-77.5 -28.5t-97.5 -13q-156 0 -257 106.5t-101 264.5zM341 781v101h87v-101h-87z" />
    <glyph glyph-name="cdotaccent" unicode="&#x10b;" horiz-adv-x="533" 
d="M36 253q0 113 76 189t196 76q26 0 55 -5.5t58.5 -17.5t49 -35t19.5 -53v-52h-88v28q0 25 -30.5 38.5t-63.5 13.5q-75 0 -124 -50.5t-49 -130.5q0 -83 52 -131.5t126 -48.5q42 0 81.5 17.5t57.5 34.5l18 18l42 -69q-3 -4 -8.5 -9.5t-25.5 -20.5t-42 -26.5t-57 -21
t-73 -9.5q-119 0 -194.5 75t-75.5 190zM248 605v101h87v-101h-87z" />
    <glyph glyph-name="Ccaron" unicode="&#x10c;" horiz-adv-x="701" 
d="M34 359q0 153 101.5 256t252.5 103q39 0 82 -8.5t85.5 -25.5t70 -48t27.5 -71v-69h-92v40q0 41 -55 65t-116 24q-108 0 -180 -74t-72 -192q0 -116 73.5 -196.5t181.5 -80.5q39 0 76.5 10t63 24t45 28t28.5 24l10 10l54 -72q-4 -5 -12 -13t-34.5 -28t-56.5 -35.5
t-77.5 -28.5t-97.5 -13q-156 0 -257 106.5t-101 264.5zM340 755l-88 127h79l52 -81h2l52 81h80l-88 -127h-89z" />
    <glyph glyph-name="ccaron" unicode="&#x10d;" horiz-adv-x="533" 
d="M36 253q0 113 76 189t196 76q26 0 55 -5.5t58.5 -17.5t49 -35t19.5 -53v-52h-88v28q0 25 -30.5 38.5t-63.5 13.5q-75 0 -124 -50.5t-49 -130.5q0 -83 52 -131.5t126 -48.5q42 0 81.5 17.5t57.5 34.5l18 18l42 -69q-3 -4 -8.5 -9.5t-25.5 -20.5t-42 -26.5t-57 -21
t-73 -9.5q-119 0 -194.5 75t-75.5 190zM247 579l-88 127h79l52 -81h2l52 81h80l-88 -127h-89z" />
    <glyph glyph-name="Dcaron" unicode="&#x10e;" horiz-adv-x="715" 
d="M103 64v556h-65v86h286q163 0 260 -93.5t97 -258.5q0 -166 -97 -260t-260 -94h-157q-34 0 -49 15t-15 49zM203 108q0 -22 22 -22h92q120 0 190 70t70 198q0 127 -70.5 196.5t-189.5 69.5h-114v-512zM298 755l-88 127h79l52 -81h2l52 81h80l-88 -127h-89z" />
    <glyph glyph-name="dcaron" unicode="&#x10f;" horiz-adv-x="691" 
d="M37 253q0 120 64 192.5t165 72.5q33 0 61 -8t44.5 -19.5t29 -23t17.5 -19.5l4 -8h2q-2 15 -2 34v127q0 22 -22 22h-41v83h96q34 0 49 -15t15 -49v-537q0 -22 22 -22h41v-83h-93q-62 0 -62 54l1 26h-2q-2 -4 -5.5 -10t-17.5 -22t-31 -28t-47 -22t-65 -10q-102 0 -162.5 73
t-60.5 192zM279 72q62 0 104 45.5t42 136.5q0 73 -37.5 126.5t-106.5 53.5q-62 0 -103.5 -49t-41.5 -132q0 -82 39.5 -131.5t103.5 -49.5zM574 706h79q6 -27 6 -49q0 -41 -24 -92h-69q19 49 19 82q0 29 -11 59z" />
    <glyph glyph-name="Dcroat" unicode="&#x110;" horiz-adv-x="715" 
d="M103 64v248h-49v82h49v226h-65v86h286q163 0 260 -93.5t97 -258.5q0 -166 -97 -260t-260 -94h-157q-34 0 -49 15t-15 49zM203 108q0 -22 22 -22h92q120 0 190 70t70 198q0 127 -70.5 196.5t-189.5 69.5h-114v-226h144v-82h-144v-204z" />
    <glyph glyph-name="dcroat" unicode="&#x111;" horiz-adv-x="606" 
d="M260 -12q-102 0 -162.5 73t-60.5 192q0 120 64 192.5t165 72.5q33 0 61 -8t44.5 -19.5t29 -23t17.5 -19.5l4 -8h2q-2 15 -2 34v89h-129v63h129v80h97v-80h77v-63h-77v-458q0 -22 22 -22h41v-83h-93q-62 0 -62 54l1 26h-2q-2 -4 -5.5 -10t-17.5 -22t-31 -28t-47 -22
t-65 -10zM279 72q62 0 104 45.5t42 136.5q0 73 -37.5 126.5t-106.5 53.5q-62 0 -103.5 -49t-41.5 -132q0 -82 39.5 -131.5t103.5 -49.5z" />
    <glyph glyph-name="Emacron" unicode="&#x112;" horiz-adv-x="568" 
d="M103 64v556h-65v86h415q34 0 49 -15t15 -49v-89h-91v45q0 22 -22 22h-201v-221h247v-86h-247v-205q0 -22 22 -22h206q22 0 22 22v45h92v-89q0 -34 -15 -49t-49 -15h-314q-34 0 -49 15t-15 49zM169 784v68h254v-68h-254z" />
    <glyph glyph-name="emacron" unicode="&#x113;" horiz-adv-x="552" 
d="M36 253q0 119 72 192t182 73q103 0 160.5 -67t57.5 -170l-3 -40h-369q4 -78 54 -123.5t120 -45.5q39 0 76 15t54 29l18 15l42 -69q-8 -8 -24 -20.5t-67 -33t-104 -20.5q-119 0 -194 75.5t-75 189.5zM140 312h268q-2 61 -36 95t-83 34q-57 0 -97.5 -33.5t-51.5 -95.5z
M160 608v68h254v-68h-254z" />
    <glyph glyph-name="Ebreve" unicode="&#x114;" horiz-adv-x="568" 
d="M103 64v556h-65v86h415q34 0 49 -15t15 -49v-89h-91v45q0 22 -22 22h-201v-221h247v-86h-247v-205q0 -22 22 -22h206q22 0 22 22v45h92v-89q0 -34 -15 -49t-49 -15h-314q-34 0 -49 15t-15 49zM295 751q-51 0 -89.5 31t-38.5 86v14h67v-13q0 -30 18 -45t43 -15
q26 0 44 15.5t18 45.5v12h66v-14q0 -55 -38 -86t-90 -31z" />
    <glyph glyph-name="ebreve" unicode="&#x115;" horiz-adv-x="552" 
d="M36 253q0 119 72 192t182 73q103 0 160.5 -67t57.5 -170l-3 -40h-369q4 -78 54 -123.5t120 -45.5q39 0 76 15t54 29l18 15l42 -69q-8 -8 -24 -20.5t-67 -33t-104 -20.5q-119 0 -194 75.5t-75 189.5zM140 312h268q-2 61 -36 95t-83 34q-57 0 -97.5 -33.5t-51.5 -95.5z
M287 575q-51 0 -89.5 31t-38.5 86v14h67v-13q0 -30 18 -45t43 -15q26 0 44 15.5t18 45.5v12h66v-14q0 -55 -38 -86t-90 -31z" />
    <glyph glyph-name="Edotaccent" unicode="&#x116;" horiz-adv-x="568" 
d="M103 64v556h-65v86h415q34 0 49 -15t15 -49v-89h-91v45q0 22 -22 22h-201v-221h247v-86h-247v-205q0 -22 22 -22h206q22 0 22 22v45h92v-89q0 -34 -15 -49t-49 -15h-314q-34 0 -49 15t-15 49zM252 781v101h87v-101h-87z" />
    <glyph glyph-name="edotaccent" unicode="&#x117;" horiz-adv-x="552" 
d="M36 253q0 119 72 192t182 73q103 0 160.5 -67t57.5 -170l-3 -40h-369q4 -78 54 -123.5t120 -45.5q39 0 76 15t54 29l18 15l42 -69q-8 -8 -24 -20.5t-67 -33t-104 -20.5q-119 0 -194 75.5t-75 189.5zM140 312h268q-2 61 -36 95t-83 34q-57 0 -97.5 -33.5t-51.5 -95.5z
M243 605v101h87v-101h-87z" />
    <glyph glyph-name="Eogonek" unicode="&#x118;" horiz-adv-x="568" 
d="M103 64v556h-65v86h415q34 0 49 -15t15 -49v-89h-91v45q0 22 -22 22h-201v-221h247v-86h-247v-205q0 -22 22 -22h206q22 0 22 22v45h92v-89q0 -37 -23 -56q-3 -3 -15.5 -13.5t-17.5 -15t-15 -15t-14.5 -17.5t-8.5 -17t-4 -19q0 -17 13.5 -27.5t27.5 -13.5l14 -2l-22 -75
q-5 0 -13 1.5t-28 7.5t-35.5 15.5t-28 28t-12.5 42.5q0 58 65 110v2h-261q-34 0 -49 15t-15 49z" />
    <glyph glyph-name="eogonek" unicode="&#x119;" horiz-adv-x="552" 
d="M36 253q0 119 72 192t182 73q103 0 160.5 -67t57.5 -170l-3 -40h-369q4 -78 54 -123.5t120 -45.5q39 0 76 15t54 29l18 15l42 -69q-8 -8 -48 -37t-63 -56.5t-23 -57.5q0 -17 14 -27.5t28 -13.5l14 -2l-23 -75q-5 0 -12.5 1.5t-27.5 7.5t-35.5 15.5t-28 28t-12.5 42.5
q0 51 56 101v2q-17 -3 -34 -3q-119 0 -194 75.5t-75 189.5zM140 312h268q-3 61 -36 95t-83 34q-57 0 -97.5 -33.5t-51.5 -95.5z" />
    <glyph glyph-name="Ecaron" unicode="&#x11a;" horiz-adv-x="568" 
d="M103 64v556h-65v86h415q34 0 49 -15t15 -49v-89h-91v45q0 22 -22 22h-201v-221h247v-86h-247v-205q0 -22 22 -22h206q22 0 22 22v45h92v-89q0 -34 -15 -49t-49 -15h-314q-34 0 -49 15t-15 49zM251 755l-88 127h79l52 -81h2l52 81h80l-88 -127h-89z" />
    <glyph glyph-name="ecaron" unicode="&#x11b;" horiz-adv-x="552" 
d="M36 253q0 119 72 192t182 73q103 0 160.5 -67t57.5 -170l-3 -40h-369q4 -78 54 -123.5t120 -45.5q39 0 76 15t54 29l18 15l42 -69q-8 -8 -24 -20.5t-67 -33t-104 -20.5q-119 0 -194 75.5t-75 189.5zM140 312h268q-2 61 -36 95t-83 34q-57 0 -97.5 -33.5t-51.5 -95.5z
M242 579l-88 127h79l52 -81h2l52 81h80l-88 -127h-89z" />
    <glyph glyph-name="Gcircumflex" unicode="&#x11c;" horiz-adv-x="736" 
d="M35 356q0 153 102.5 257.5t253.5 104.5q75 0 138 -22t89 -44l25 -21l-57 -73q-9 8 -24.5 19t-66 30t-102.5 19q-107 0 -180.5 -76.5t-73.5 -193.5q0 -121 73.5 -197.5t182.5 -76.5q35 0 69 9t56.5 22t40.5 26t27 22l8 9v71q0 22 -22 22h-43v86h93q34 0 49 -15t15 -49
v-285h-88v44l1 30h-2q-3 -3 -9.5 -9t-27.5 -21t-44.5 -26t-61.5 -20.5t-77 -9.5q-144 0 -244 103t-100 265zM256 755l87 127h89l88 -127h-79l-52 80h-2l-53 -80h-78z" />
    <glyph glyph-name="gcircumflex" unicode="&#x11d;" horiz-adv-x="595" 
d="M37 265q0 112 59.5 182.5t162.5 70.5q35 0 65 -8t47 -20t29 -23.5t16 -19.5l5 -8h2v16q0 51 56 51h94v-83h-40q-22 0 -22 -20v-382q0 -60 -21.5 -106t-58.5 -72.5t-81 -39.5t-94 -13q-89 0 -173 42l33 78q62 -34 138 -34q71 0 115.5 34.5t44.5 106.5v34l2 32h-2
q-47 -77 -151 -77q-103 0 -164.5 73.5t-61.5 185.5zM282 90q59 0 97 41t38 133q0 170 -143 170q-65 0 -101.5 -44.5t-36.5 -122.5q0 -80 39.5 -128.5t106.5 -48.5zM169 579l87 127h89l88 -127h-79l-52 80h-2l-53 -80h-78z" />
    <glyph glyph-name="Gbreve" unicode="&#x11e;" horiz-adv-x="736" 
d="M35 356q0 153 102.5 257.5t253.5 104.5q75 0 138 -22t89 -44l25 -21l-57 -73q-9 8 -24.5 19t-66 30t-102.5 19q-107 0 -180.5 -76.5t-73.5 -193.5q0 -121 73.5 -197.5t182.5 -76.5q35 0 69 9t56.5 22t40.5 26t27 22l8 9v71q0 22 -22 22h-43v86h93q34 0 49 -15t15 -49
v-285h-88v44l1 30h-2q-3 -3 -9.5 -9t-27.5 -21t-44.5 -26t-61.5 -20.5t-77 -9.5q-144 0 -244 103t-100 265zM388 751q-51 0 -89.5 31t-38.5 86v14h67v-13q0 -30 17.5 -45t43.5 -15t44 15.5t18 45.5v12h66v-14q0 -55 -38 -86t-90 -31z" />
    <glyph glyph-name="gbreve" unicode="&#x11f;" horiz-adv-x="595" 
d="M37 265q0 112 59.5 182.5t162.5 70.5q35 0 65 -8t47 -20t29 -23.5t16 -19.5l5 -8h2v16q0 51 56 51h94v-83h-40q-22 0 -22 -20v-382q0 -60 -21.5 -106t-58.5 -72.5t-81 -39.5t-94 -13q-89 0 -173 42l33 78q62 -34 138 -34q71 0 115.5 34.5t44.5 106.5v34l2 32h-2
q-47 -77 -151 -77q-103 0 -164.5 73.5t-61.5 185.5zM282 90q59 0 97 41t38 133q0 170 -143 170q-65 0 -101.5 -44.5t-36.5 -122.5q0 -80 39.5 -128.5t106.5 -48.5zM300 575q-51 0 -89.5 31t-38.5 86v14h67v-13q0 -30 17.5 -45t43.5 -15t44 15.5t18 45.5v12h66v-14
q0 -55 -38 -86t-90 -31z" />
    <glyph glyph-name="Gdotaccent" unicode="&#x120;" horiz-adv-x="736" 
d="M35 356q0 153 102.5 257.5t253.5 104.5q75 0 138 -22t89 -44l25 -21l-57 -73q-9 8 -24.5 19t-66 30t-102.5 19q-107 0 -180.5 -76.5t-73.5 -193.5q0 -121 73.5 -197.5t182.5 -76.5q35 0 69 9t56.5 22t40.5 26t27 22l8 9v71q0 22 -22 22h-43v86h93q34 0 49 -15t15 -49
v-285h-88v44l1 30h-2q-3 -3 -9.5 -9t-27.5 -21t-44.5 -26t-61.5 -20.5t-77 -9.5q-144 0 -244 103t-100 265zM344 781v101h87v-101h-87z" />
    <glyph glyph-name="gdotaccent" unicode="&#x121;" horiz-adv-x="595" 
d="M37 265q0 112 59.5 182.5t162.5 70.5q35 0 65 -8t47 -20t29 -23.5t16 -19.5l5 -8h2v16q0 51 56 51h94v-83h-40q-22 0 -22 -20v-382q0 -60 -21.5 -106t-58.5 -72.5t-81 -39.5t-94 -13q-89 0 -173 42l33 78q62 -34 138 -34q71 0 115.5 34.5t44.5 106.5v34l2 32h-2
q-47 -77 -151 -77q-103 0 -164.5 73.5t-61.5 185.5zM282 90q59 0 97 41t38 133q0 170 -143 170q-65 0 -101.5 -44.5t-36.5 -122.5q0 -80 39.5 -128.5t106.5 -48.5zM257 605v101h87v-101h-87z" />
    <glyph glyph-name="Gcommaaccent" unicode="&#x122;" horiz-adv-x="736" 
d="M35 356q0 153 102.5 257.5t253.5 104.5q75 0 138 -22t89 -44l25 -21l-57 -73q-9 8 -24.5 19t-66 30t-102.5 19q-107 0 -180.5 -76.5t-73.5 -193.5q0 -121 73.5 -197.5t182.5 -76.5q35 0 69 9t56.5 22t40.5 26t27 22l8 9v71q0 22 -22 22h-43v86h93q34 0 49 -15t15 -49
v-285h-88v44l1 30h-2q-3 -3 -9.5 -9t-27.5 -21t-44.5 -26t-61.5 -20.5t-77 -9.5q-144 0 -244 103t-100 265zM341 -59h79q6 -27 6 -49q0 -41 -24 -92h-69q19 49 19 82q0 29 -11 59z" />
    <glyph glyph-name="gcommaaccent" unicode="&#x123;" horiz-adv-x="595" 
d="M37 265q0 112 59.5 182.5t162.5 70.5q35 0 65 -8t47 -20t29 -23.5t16 -19.5l5 -8h2v16q0 51 56 51h94v-83h-40q-22 0 -22 -20v-382q0 -60 -21.5 -106t-58.5 -72.5t-81 -39.5t-94 -13q-89 0 -173 42l33 78q62 -34 138 -34q71 0 115.5 34.5t44.5 106.5v34l2 32h-2
q-47 -77 -151 -77q-103 0 -164.5 73.5t-61.5 185.5zM282 90q59 0 97 41t38 133q0 170 -143 170q-65 0 -101.5 -44.5t-36.5 -122.5q0 -80 39.5 -128.5t106.5 -48.5zM327 565h-79q-6 27 -6 49q0 41 24 92h69q-19 -49 -19 -82q0 -29 11 -59z" />
    <glyph glyph-name="Hcircumflex" unicode="&#x124;" horiz-adv-x="765" 
d="M103 0v598q0 22 -22 22h-43v86h101q34 0 49 -15t15 -49v-247h359v247q0 34 15 49t49 15h101v-86h-43q-22 0 -22 -22v-598h-100v310h-359v-310h-100zM251 755l87 127h89l88 -127h-79l-52 80h-2l-53 -80h-78z" />
    <glyph glyph-name="hcircumflex" unicode="&#x125;" horiz-adv-x="622" 
d="M81 0v601q0 22 -22 22h-41v83h96q34 0 49 -15t15 -47v-197l-2 -42h2q20 44 69.5 78.5t118.5 34.5q173 0 173 -194v-219q0 -22 22 -22h41v-83h-95q-34 0 -49 15t-15 49v238q0 61 -20 94t-76 33q-57 0 -100.5 -34.5t-59.5 -90.5q-9 -26 -9 -67v-237h-97zM191 755l87 127h89
l88 -127h-79l-52 80h-2l-53 -80h-78z" />
    <glyph glyph-name="Hbar" unicode="&#x126;" horiz-adv-x="765" 
d="M103 0v514h-66v68h66v124h100v-124h359v124h100v-124h65v-68h-65v-514h-100v310h-359v-310h-100zM203 395h359v119h-359v-119z" />
    <glyph glyph-name="hbar" unicode="&#x127;" horiz-adv-x="622" 
d="M81 0v563h-76v63h76v80h97v-80h129v-63h-129v-116l-2 -42h2q5 13 17.5 29.5t34.5 36.5t58 33.5t78 13.5q173 0 173 -194v-219q0 -22 22 -22h41v-83h-95q-34 0 -49 15t-15 49v238q0 60 -20 93.5t-76 33.5q-75 0 -122 -55t-47 -137v-237h-97z" />
    <glyph glyph-name="Itilde" unicode="&#x128;" horiz-adv-x="317" 
d="M42 0v86h69v534h-69v86h233v-86h-69v-534h69v-86h-233zM-12 756q0 127 103 127q29 0 52 -17t40.5 -34t35.5 -17q21 0 30.5 19.5t9.5 45.5h66q0 -127 -103 -127q-29 0 -51.5 17t-40.5 34t-36 17q-21 0 -30.5 -19.5t-9.5 -45.5h-66z" />
    <glyph glyph-name="itilde" unicode="&#x129;" horiz-adv-x="277" 
d="M90 64v337q0 22 -22 22h-41v83h96q34 0 49 -15t15 -49v-337q0 -22 22 -22h41v-83h-95q-34 0 -49.5 15t-15.5 49zM-17 581q0 127 92 127q25 0 44.5 -16.5t33.5 -33t26 -16.5q33 0 33 63h65q0 -127 -92 -127q-25 0 -44.5 16t-34 32.5t-25.5 16.5q-33 0 -33 -62h-65z" />
    <glyph glyph-name="Imacron" unicode="&#x12a;" horiz-adv-x="317" 
d="M42 0v86h69v534h-69v86h233v-86h-69v-534h69v-86h-233zM31 784v68h254v-68h-254z" />
    <glyph glyph-name="imacron" unicode="&#x12b;" horiz-adv-x="277" 
d="M90 64v337q0 22 -22 22h-41v83h96q34 0 49 -15t15 -49v-337q0 -22 22 -22h41v-83h-95q-34 0 -49.5 15t-15.5 49zM16 609v68h231v-68h-231z" />
    <glyph glyph-name="Ibreve" unicode="&#x12c;" horiz-adv-x="317" 
d="M42 0v86h69v534h-69v86h233v-86h-69v-534h69v-86h-233zM158 751q-51 0 -89.5 31t-38.5 86v14h67v-13q0 -30 17.5 -45t43.5 -15t44 15.5t18 45.5v12h66v-14q0 -55 -38 -86t-90 -31z" />
    <glyph glyph-name="ibreve" unicode="&#x12d;" horiz-adv-x="277" 
d="M90 64v337q0 22 -22 22h-41v83h96q34 0 49 -15t15 -49v-337q0 -22 22 -22h41v-83h-95q-34 0 -49.5 15t-15.5 49zM131 575q-51 0 -89.5 31.5t-38.5 86.5v13h67v-12q0 -30 17.5 -45.5t43.5 -15.5t44 15.5t18 45.5v12h66v-13q0 -55 -38 -86.5t-90 -31.5z" />
    <glyph glyph-name="Iogonek" unicode="&#x12e;" horiz-adv-x="317" 
d="M42 0v86h69v534h-69v86h233v-86h-69v-534h69v-86q-64 -54 -64 -89q0 -17 13.5 -27.5t27.5 -13.5l14 -2l-22 -75q-5 0 -13 1.5t-28 7.5t-35.5 15.5t-28 28t-12.5 42.5q0 58 65 110v2h-150z" />
    <glyph glyph-name="iogonek" unicode="&#x12f;" horiz-adv-x="275" 
d="M92 605v101h87v-101h-87zM102 -112q0 61 64 110v2h-20q-56 0 -56 81v320q0 22 -22 22h-41v83h68q57 0 74 -21.5t17 -76.5v-303q0 -22 22 -22h41v-83q-64 -54 -64 -89q0 -17 14 -27.5t28 -13.5l14 -2l-23 -75q-5 0 -12.5 1.5t-27.5 7.5t-35.5 15.5t-28 28t-12.5 42.5z" />
    <glyph glyph-name="Idotaccent" unicode="&#x130;" horiz-adv-x="317" 
d="M42 0v86h69v534h-69v86h233v-86h-69v-534h69v-86h-233zM114 781v101h87v-101h-87z" />
    <glyph glyph-name="dotlessi" unicode="&#x131;" horiz-adv-x="277" 
d="M90 64v337q0 22 -22 22h-41v83h96q34 0 49 -15t15 -49v-337q0 -22 22 -22h41v-83h-95q-34 0 -49.5 15t-15.5 49z" />
    <glyph glyph-name="IJ" unicode="&#x132;" horiz-adv-x="681" 
d="M364 -5v91q25 0 46.5 6t43.5 21.5t35 48t13 78.5v358q0 22 -22 22h-112v86h170q34 0 49 -15t15 -49v-403q0 -73 -21 -123.5t-58 -75.5t-75 -35t-84 -10zM42 0v86h69v534h-69v86h233v-86h-69v-534h69v-86h-233z" />
    <glyph glyph-name="ij" unicode="&#x133;" horiz-adv-x="551" 
d="M92 605v101h87v-101h-87zM90 64v337q0 22 -22 22h-41v83h95q34 0 49 -15t15 -49v-337q0 -22 22 -22h41v-83h-95q-34 0 -49 15t-15 49zM377 605v101h87v-101h-87zM245 -121q9 -1 22 -1q17 0 33 4t34.5 14t29.5 34t11 59v412q0 22 -22 22h-41v83h96q34 0 49 -15t15 -49
v-459q0 -48 -14.5 -84t-35 -55.5t-49 -31.5t-50.5 -15t-45 -3l-33 2v83z" />
    <glyph glyph-name="Jcircumflex" unicode="&#x134;" horiz-adv-x="522" 
d="M22 203v35h100v-27q0 -68 32 -98.5t79 -30.5t78.5 30.5t31.5 94.5v391q0 22 -22 22h-173v86h231q34 0 49 -15t15 -49v-439q0 -107 -62 -161t-149 -54t-148.5 54.5t-61.5 160.5zM157 755l87 127h89l88 -127h-79l-52 80h-2l-53 -80h-78z" />
    <glyph glyph-name="jcircumflex" unicode="&#x135;" horiz-adv-x="284" 
d="M-1 579l88 127h89l87 -127h-78l-54 82l-53 -82h-79zM-20 -123q9 -1 22 -1q17 0 33 4t34.5 14.5t29.5 34.5t11 59v416q0 22 -25 22h-38v80h94q35 0 49.5 -12.5t14.5 -45.5v-465q0 -48 -14 -84t-34.5 -55.5t-48.5 -31.5t-50 -15t-45 -3l-33 2v81z" />
    <glyph glyph-name="Kcommaaccent" unicode="&#x136;" horiz-adv-x="611" 
d="M103 0v598q0 22 -22 22h-43v86h101q34 0 49 -15t15 -49v-233h67q44 0 58 24l157 273h112l-171 -293q-9 -16 -19 -27.5t-15 -15.5l-6 -3v-2q20 -5 40 -44l106 -212q11 -23 50 -23h19v-86h-55q-43 0 -62 10t-36 43l-122 245q-14 26 -63 26h-60v-324h-100zM285 -59h79
q6 -27 6 -49q0 -41 -24 -92h-69q19 49 19 82q0 29 -11 59z" />
    <glyph glyph-name="kcommaaccent" unicode="&#x137;" horiz-adv-x="525" 
d="M81 0v601q0 22 -22 22h-41v83h96q35 0 49.5 -12.5t14.5 -45.5v-328h45q36 0 53 22l117 164h111l-137 -188q-10 -14 -19.5 -23.5t-13.5 -12.5l-5 -2v-2q17 -6 34 -38l75 -137q10 -20 43 -20h31v-83h-70q-35 0 -51.5 9t-32.5 38l-92 170q-12 21 -50 21h-38v-238h-97z
M239 -59h79q6 -27 6 -49q0 -41 -24 -92h-69q19 49 19 82q0 29 -11 59z" />
    <glyph glyph-name="kgreenlandic" unicode="&#x138;" horiz-adv-x="525" 
d="M81 0v401q0 22 -22 22h-41v83h96q35 0 49.5 -12.5t14.5 -45.5v-148h45q39 0 53 21l123 185h110l-143 -207q-10 -14 -19 -23.5t-13 -11.5l-4 -2v-2q14 -6 32 -39l65 -118q10 -20 44 -20h35v-83h-75q-35 0 -51.5 9t-32.5 38l-81 150q-11 20 -50 20h-38v-217h-97z" />
    <glyph glyph-name="Lacute" unicode="&#x139;" horiz-adv-x="543" 
d="M103 64v534q0 22 -22 22h-43v86h101q34 0 49 -15t15 -49v-534q0 -22 22 -22h195q22 0 22 22v45h91v-89q0 -34 -15 -49t-49 -15h-302q-34 0 -49 15t-15 49zM122 755l73 127h98l-95 -127h-76z" />
    <glyph glyph-name="lacute" unicode="&#x13a;" horiz-adv-x="268" 
d="M83 64v537q0 22 -22 22h-41v83h96q34 0 49 -15t15 -49v-537q0 -22 22 -22h41v-83h-96q-34 0 -49 15t-15 49zM73 755l73 127h98l-95 -127h-76z" />
    <glyph glyph-name="Lcommaaccent" unicode="&#x13b;" horiz-adv-x="543" 
d="M103 64v534q0 22 -22 22h-43v86h101q34 0 49 -15t15 -49v-534q0 -22 22 -22h195q22 0 22 22v45h91v-89q0 -34 -15 -49t-49 -15h-302q-34 0 -49 15t-15 49zM275 -59h79q6 -27 6 -49q0 -41 -24 -92h-69q19 49 19 82q0 29 -11 59z" />
    <glyph glyph-name="lcommaaccent" unicode="&#x13c;" horiz-adv-x="268" 
d="M83 64v537q0 22 -22 22h-41v83h96q34 0 49 -15t15 -49v-537q0 -22 22 -22h41v-83h-96q-34 0 -49 15t-15 49zM104 -59h79q6 -27 6 -49q0 -41 -24 -92h-69q19 49 19 82q0 29 -11 59z" />
    <glyph glyph-name="Lcaron" unicode="&#x13d;" horiz-adv-x="543" 
d="M103 64v534q0 22 -22 22h-43v86h101q34 0 49 -15t15 -49v-534q0 -22 22 -22h195q22 0 22 22v45h91v-89q0 -34 -15 -49t-49 -15h-302q-34 0 -49 15t-15 49zM288 706h79q6 -27 6 -49q0 -41 -24 -92h-69q19 49 19 82q0 29 -11 59z" />
    <glyph glyph-name="lcaron" unicode="&#x13e;" horiz-adv-x="354" 
d="M83 64v537q0 22 -22 22h-41v83h96q34 0 49 -15t15 -49v-537q0 -22 22 -22h41v-83h-96q-34 0 -49 15t-15 49zM236 706h79q6 -27 6 -49q0 -41 -24 -92h-69q19 49 19 82q0 29 -11 59z" />
    <glyph glyph-name="Ldot" unicode="&#x13f;" horiz-adv-x="543" 
d="M103 64v534q0 22 -22 22h-43v86h101q34 0 49 -15t15 -49v-534q0 -22 22 -22h195q22 0 22 22v45h91v-89q0 -34 -15 -49t-49 -15h-302q-34 0 -49 15t-15 49zM315 328v103h99v-103h-99z" />
    <glyph glyph-name="ldot" unicode="&#x140;" horiz-adv-x="356" 
d="M83 64v537q0 22 -22 22h-41v83h96q34 0 49 -15t15 -49v-537q0 -22 22 -22h41v-83h-96q-34 0 -49 15t-15 49zM251 328v103h99v-103h-99z" />
    <glyph glyph-name="Lslash" unicode="&#x141;" horiz-adv-x="543" 
d="M103 64v239l-63 -36v97l63 36v198q0 22 -22 22h-43v86h101q34 0 49 -15t15 -49v-185l104 60v-97l-104 -60v-252q0 -22 22 -22h195q22 0 22 22v45h91v-89q0 -34 -15 -49t-49 -15h-302q-34 0 -49 15t-15 49z" />
    <glyph glyph-name="lslash" unicode="&#x142;" horiz-adv-x="285" 
d="M94 64v257l-75 -43v97l75 44v182q0 22 -22 22h-40v83h95q34 0 49 -15t15 -49v-168l78 45v-97l-78 -46v-271q0 -22 22 -22h41v-83h-95q-34 0 -49.5 15t-15.5 49z" />
    <glyph glyph-name="Nacute" unicode="&#x143;" horiz-adv-x="765" 
d="M38 0v86h43q22 0 22 22v598h91l314 -447l59 -96h2q-7 56 -7 96v383q0 34 15.5 49t49.5 15h100v-86h-43q-22 0 -22 -22v-598h-90l-315 447l-58 96h-2q6 -57 6 -96v-383q0 -34 -15 -49t-49 -15h-101zM353 755l73 127h98l-95 -127h-76z" />
    <glyph glyph-name="nacute" unicode="&#x144;" horiz-adv-x="626" 
d="M85 0v401q0 22 -22 22h-41v83h93q64 0 64 -56v-19l-2 -29h2q20 43 68 79.5t122 36.5q89 0 131.5 -48t42.5 -146v-219q0 -22 22 -22h41v-83h-96q-34 0 -49 15t-15 49v238q0 61 -19.5 94t-75.5 33q-58 0 -101.5 -34.5t-58.5 -89.5q-9 -26 -9 -68v-237h-97zM284 579l73 127
h98l-95 -127h-76z" />
    <glyph glyph-name="Ncommaaccent" unicode="&#x145;" horiz-adv-x="765" 
d="M38 0v86h43q22 0 22 22v598h91l314 -447l59 -96h2q-7 56 -7 96v383q0 34 15.5 49t49.5 15h100v-86h-43q-22 0 -22 -22v-598h-90l-315 447l-58 96h-2q6 -57 6 -96v-383q0 -34 -15 -49t-49 -15h-101zM339 -59h79q6 -27 6 -49q0 -41 -24 -92h-69q19 49 19 82q0 29 -11 59z
" />
    <glyph glyph-name="ncommaaccent" unicode="&#x146;" horiz-adv-x="626" 
d="M85 0v401q0 22 -22 22h-41v83h93q64 0 64 -56v-19l-2 -29h2q20 43 68 79.5t122 36.5q89 0 131.5 -48t42.5 -146v-219q0 -22 22 -22h41v-83h-96q-34 0 -49 15t-15 49v238q0 61 -19.5 94t-75.5 33q-58 0 -101.5 -34.5t-58.5 -89.5q-9 -26 -9 -68v-237h-97zM284 -59h79
q6 -27 6 -49q0 -41 -24 -92h-69q19 49 19 82q0 29 -11 59z" />
    <glyph glyph-name="Ncaron" unicode="&#x147;" horiz-adv-x="765" 
d="M38 0v86h43q22 0 22 22v598h91l314 -447l59 -96h2q-7 56 -7 96v383q0 34 15.5 49t49.5 15h100v-86h-43q-22 0 -22 -22v-598h-90l-315 447l-58 96h-2q6 -57 6 -96v-383q0 -34 -15 -49t-49 -15h-101zM348 755l-88 127h79l52 -81h2l52 81h80l-88 -127h-89z" />
    <glyph glyph-name="ncaron" unicode="&#x148;" horiz-adv-x="626" 
d="M85 0v401q0 22 -22 22h-41v83h93q64 0 64 -56v-19l-2 -29h2q20 43 68 79.5t122 36.5q89 0 131.5 -48t42.5 -146v-219q0 -22 22 -22h41v-83h-96q-34 0 -49 15t-15 49v238q0 61 -19.5 94t-75.5 33q-58 0 -101.5 -34.5t-58.5 -89.5q-9 -26 -9 -68v-237h-97zM278 579l-88 127
h79l52 -81h2l52 81h80l-88 -127h-89z" />
    <glyph glyph-name="napostrophe" unicode="&#x149;" horiz-adv-x="654" 
d="M113 0v401q0 22 -22 22h-41v83h93q64 0 64 -56v-19l-2 -29h2q20 43 68 79.5t122 36.5q89 0 131.5 -48t42.5 -146v-219q0 -22 22 -22h41v-83h-96q-34 0 -49 15t-15 49v238q0 61 -19.5 94t-75.5 33q-58 0 -101.5 -34.5t-58.5 -89.5q-9 -26 -9 -68v-237h-97zM-6 706h79
q6 -27 6 -49q0 -41 -24 -92h-69q19 49 19 82q0 29 -11 59z" />
    <glyph glyph-name="Eng" unicode="&#x14a;" horiz-adv-x="765" 
d="M38 0v86h43q22 0 22 22v598h91l314 -447l59 -96h2q-7 56 -7 96v383q0 34 15.5 49t49.5 15h100v-86h-43q-22 0 -22 -22v-571q0 -65 -20.5 -112.5t-55.5 -72.5t-73.5 -36t-82.5 -11v91q49 0 90.5 30.5t41.5 92.5v7l-305 431l-58 96h-2q6 -57 6 -96v-383q0 -34 -15 -49
t-49 -15h-101z" />
    <glyph glyph-name="eng" unicode="&#x14b;" horiz-adv-x="621" 
d="M85 0v401q0 22 -22 22h-41v83h93q64 0 64 -56v-19l-2 -29h2q20 43 68 79.5t122 36.5q89 0 131.5 -48t42.5 -146v-344q0 -48 -14.5 -84t-35 -55.5t-49 -31.5t-50.5 -15t-45 -3l-34 2v83q9 -1 22 -1q18 0 34 4t34.5 14.5t29.5 34.5t11 59v315q0 61 -19.5 94t-75.5 33
q-57 0 -101 -35t-60 -90q-8 -27 -8 -67v-237h-97z" />
    <glyph glyph-name="Omacron" unicode="&#x14c;" horiz-adv-x="793" 
d="M34 358q0 152 104.5 256t257.5 104t258 -104t105 -256q0 -156 -105 -263t-258 -107t-257.5 107t-104.5 263zM138 358q0 -116 75 -196t183 -80t183.5 80t75.5 196q0 113 -75.5 190t-183.5 77t-183 -77t-75 -190zM267 784v68h254v-68h-254z" />
    <glyph glyph-name="omacron" unicode="&#x14d;" horiz-adv-x="617" 
d="M36 254q0 114 79 189t193 75q115 0 194 -75t79 -189t-79.5 -190t-193.5 -76t-193 76t-79 190zM135 254q0 -78 50.5 -130t122.5 -52q73 0 123.5 51.5t50.5 130.5q0 78 -50.5 129t-123.5 51q-72 0 -122.5 -51t-50.5 -129zM182 608v68h254v-68h-254z" />
    <glyph glyph-name="Obreve" unicode="&#x14e;" horiz-adv-x="793" 
d="M34 358q0 152 104.5 256t257.5 104t258 -104t105 -256q0 -156 -105 -263t-258 -107t-257.5 107t-104.5 263zM138 358q0 -116 75 -196t183 -80t183.5 80t75.5 196q0 113 -75.5 190t-183.5 77t-183 -77t-75 -190zM394 751q-51 0 -89.5 31t-38.5 86v14h67v-13
q0 -30 17.5 -45t43.5 -15t44 15.5t18 45.5v12h66v-14q0 -55 -38 -86t-90 -31z" />
    <glyph glyph-name="obreve" unicode="&#x14f;" horiz-adv-x="617" 
d="M36 254q0 114 79 189t193 75q115 0 194 -75t79 -189t-79.5 -190t-193.5 -76t-193 76t-79 190zM135 254q0 -78 50.5 -130t122.5 -52q73 0 123.5 51.5t50.5 130.5q0 78 -50.5 129t-123.5 51q-72 0 -122.5 -51t-50.5 -129zM308 575q-51 0 -89.5 31t-38.5 86v14h67v-13
q0 -30 17.5 -45t43.5 -15t44 15.5t18 45.5v12h66v-14q0 -55 -38 -86t-90 -31z" />
    <glyph glyph-name="Ohungarumlaut" unicode="&#x150;" horiz-adv-x="793" 
d="M34 358q0 152 104.5 256t257.5 104t258 -104t105 -256q0 -156 -105 -263t-258 -107t-257.5 107t-104.5 263zM138 358q0 -116 75 -196t183 -80t183.5 80t75.5 196q0 113 -75.5 190t-183.5 77t-183 -77t-75 -190zM428 755l72 127h99l-96 -127h-75zM275 755l69 127h84
l-70 -127h-83z" />
    <glyph glyph-name="ohungarumlaut" unicode="&#x151;" horiz-adv-x="617" 
d="M36 254q0 114 79 189t193 75q115 0 194 -75t79 -189t-79.5 -190t-193.5 -76t-193 76t-79 190zM135 254q0 -78 50.5 -130t122.5 -52q73 0 123.5 51.5t50.5 130.5q0 78 -50.5 129t-123.5 51q-72 0 -122.5 -51t-50.5 -129zM343 579l72 127h99l-96 -127h-75zM190 579l69 127
h84l-70 -127h-83z" />
    <glyph glyph-name="OE" unicode="&#x152;" horiz-adv-x="929" 
d="M34 354q0 153 99.5 257t247.5 104q29 0 77 -4.5t67 -4.5h289q34 0 49.5 -15t15.5 -49v-89h-92v45q0 22 -22 22h-195v-221h242v-86h-242v-227h223q22 0 22 22v45h91v-89q0 -34 -14.5 -49t-46.5 -15h-320q-18 0 -66.5 -4.5t-77.5 -4.5q-148 0 -247.5 104.5t-99.5 258.5z
M138 354q0 -117 68 -193.5t175 -76.5q55 0 89 8v522q-35 8 -89 8q-107 0 -175 -76t-68 -192z" />
    <glyph glyph-name="oe" unicode="&#x153;" horiz-adv-x="1002" 
d="M36 252q0 117 78.5 191.5t192.5 74.5q150 0 222 -120h2q64 120 208 120q103 0 161 -67t58 -170l-3 -40h-369q6 -80 55.5 -124.5t118.5 -44.5q39 0 76 15t54 29l18 15l42 -69q-8 -8 -24 -20.5t-67 -33t-105 -20.5q-153 0 -221 123h-2q-34 -58 -91 -90.5t-132 -32.5
q-115 0 -193.5 73.5t-78.5 190.5zM590 312h268q-3 61 -36 95t-83 34q-58 0 -98 -33.5t-51 -95.5zM135 252q0 -81 50 -130.5t123 -49.5t123.5 50.5t50.5 132.5q0 79 -51 129t-123 50q-73 0 -123 -50.5t-50 -131.5z" />
    <glyph glyph-name="Racute" unicode="&#x154;" horiz-adv-x="618" 
d="M103 0v620h-65v86h308q94 0 152.5 -56t58.5 -151q0 -80 -40.5 -128.5t-86.5 -58.5v-2q18 -9 30 -32l85 -169q11 -23 50 -23h13v-86h-49q-43 0 -62 10t-36 43l-96 190q-13 24 -26.5 31t-43.5 7h-92v-281h-100zM203 367h130q57 0 89 34t32 94q0 59 -31.5 92t-87.5 33h-132
v-253zM248 755l73 127h98l-95 -127h-76z" />
    <glyph glyph-name="racute" unicode="&#x155;" horiz-adv-x="384" 
d="M85 0v401q0 22 -22 22h-41v83h92q65 0 65 -59v-32l-2 -35h2q19 58 61.5 95t98.5 37l26 -2v-96q-13 3 -29 3q-47 0 -86 -32t-56 -87q-12 -39 -12 -91v-207h-97zM160 579l73 127h98l-95 -127h-76z" />
    <glyph glyph-name="Rcommaaccent" unicode="&#x156;" horiz-adv-x="618" 
d="M103 0v620h-65v86h308q94 0 152.5 -56t58.5 -151q0 -80 -40.5 -128.5t-86.5 -58.5v-2q18 -9 30 -32l85 -169q11 -23 50 -23h13v-86h-49q-43 0 -62 10t-36 43l-96 190q-13 24 -26.5 31t-43.5 7h-92v-281h-100zM203 367h130q57 0 89 34t32 94q0 59 -31.5 92t-87.5 33h-132
v-253zM301 -59h79q6 -27 6 -49q0 -41 -24 -92h-69q19 49 19 82q0 29 -11 59z" />
    <glyph glyph-name="rcommaaccent" unicode="&#x157;" horiz-adv-x="384" 
d="M85 0v401q0 22 -22 22h-41v83h92q65 0 65 -59v-32l-2 -35h2q19 58 61.5 95t98.5 37l26 -2v-96q-13 3 -29 3q-47 0 -86 -32t-56 -87q-12 -39 -12 -91v-207h-97zM98 -59h79q6 -27 6 -49q0 -41 -24 -92h-69q19 49 19 82q0 29 -11 59z" />
    <glyph glyph-name="Rcaron" unicode="&#x158;" horiz-adv-x="618" 
d="M103 0v620h-65v86h308q94 0 152.5 -56t58.5 -151q0 -80 -40.5 -128.5t-86.5 -58.5v-2q18 -9 30 -32l85 -169q11 -23 50 -23h13v-86h-49q-43 0 -62 10t-36 43l-96 190q-13 24 -26.5 31t-43.5 7h-92v-281h-100zM203 367h130q57 0 89 34t32 94q0 59 -31.5 92t-87.5 33h-132
v-253zM243 755l-88 127h79l52 -81h2l52 81h80l-88 -127h-89z" />
    <glyph glyph-name="rcaron" unicode="&#x159;" horiz-adv-x="384" 
d="M85 0v401q0 22 -22 22h-41v83h92q65 0 65 -59v-32l-2 -35h2q19 58 61.5 95t98.5 37l26 -2v-96q-13 3 -29 3q-47 0 -86 -32t-56 -87q-12 -39 -12 -91v-207h-97zM155 579l-88 127h79l52 -81h2l52 81h80l-88 -127h-89z" />
    <glyph glyph-name="Sacute" unicode="&#x15a;" horiz-adv-x="533" 
d="M34 93l59 71q3 -3 8.5 -9t23.5 -20.5t37.5 -26t49 -20.5t58.5 -9q51 0 86 29t35 76q0 34 -25.5 61.5t-63 44.5t-82 39.5t-82 45t-63 62.5t-25.5 92q0 80 63.5 134.5t162.5 54.5q43 0 86 -11.5t79 -42.5t36 -76v-58h-92v33q0 27 -33 45.5t-76 18.5q-56 0 -90 -27t-34 -68
q0 -33 25 -59t63 -42t82 -37.5t82 -44.5t63 -64.5t25 -95.5q0 -84 -61 -142.5t-163 -58.5q-42 0 -81.5 11t-66 26t-47 30.5t-29.5 26.5zM234 755l73 127h98l-95 -127h-76z" />
    <glyph glyph-name="sacute" unicode="&#x15b;" horiz-adv-x="454" 
d="M27 77l50 65q2 -3 7 -8t20 -18t32 -23t42.5 -18t51.5 -8q38 0 63 17t25 48q0 25 -28.5 44t-69 34.5t-81 34.5t-69 52.5t-28.5 78.5q0 69 53 105.5t135 36.5q60 0 113 -23.5t53 -74.5v-48h-87v25q0 21 -24.5 32t-51.5 11q-44 0 -69 -15.5t-25 -44.5q0 -26 28.5 -45.5
t69 -34t81 -32.5t69 -51.5t28.5 -80.5q0 -67 -52.5 -107.5t-133.5 -40.5q-38 0 -72.5 9t-57 22t-40 26.5t-25.5 22.5zM186 579l73 127h98l-95 -127h-76z" />
    <glyph glyph-name="Scircumflex" unicode="&#x15c;" horiz-adv-x="533" 
d="M34 93l59 71q3 -3 8.5 -9t23.5 -20.5t37.5 -26t49 -20.5t58.5 -9q51 0 86 29t35 76q0 34 -25.5 61.5t-63 44.5t-82 39.5t-82 45t-63 62.5t-25.5 92q0 80 63.5 134.5t162.5 54.5q43 0 86 -11.5t79 -42.5t36 -76v-58h-92v33q0 27 -33 45.5t-76 18.5q-56 0 -90 -27t-34 -68
q0 -33 25 -59t63 -42t82 -37.5t82 -44.5t63 -64.5t25 -95.5q0 -84 -61 -142.5t-163 -58.5q-42 0 -81.5 11t-66 26t-47 30.5t-29.5 26.5zM142 755l87 127h89l88 -127h-79l-52 80h-2l-53 -80h-78z" />
    <glyph glyph-name="scircumflex" unicode="&#x15d;" horiz-adv-x="454" 
d="M27 77l50 65q2 -3 7 -8t20 -18t32 -23t42.5 -18t51.5 -8q38 0 63 17t25 48q0 25 -28.5 44t-69 34.5t-81 34.5t-69 52.5t-28.5 78.5q0 69 53 105.5t135 36.5q60 0 113 -23.5t53 -74.5v-48h-87v25q0 21 -24.5 32t-51.5 11q-44 0 -69 -15.5t-25 -44.5q0 -26 28.5 -45.5
t69 -34t81 -32.5t69 -51.5t28.5 -80.5q0 -67 -52.5 -107.5t-133.5 -40.5q-38 0 -72.5 9t-57 22t-40 26.5t-25.5 22.5zM94 579l87 127h89l88 -127h-79l-52 80h-2l-53 -80h-78z" />
    <glyph glyph-name="Scedilla" unicode="&#x15e;" horiz-adv-x="533" 
d="M34 93l59 71q3 -3 8.5 -9t23.5 -20.5t37.5 -26t49 -20.5t58.5 -9q51 0 86 29t35 76q0 34 -25.5 61.5t-63 44.5t-82 39.5t-82 45t-63 62.5t-25.5 92q0 80 63.5 134.5t162.5 54.5q43 0 86 -11.5t79 -42.5t36 -76v-58h-92v33q0 27 -33 45.5t-76 18.5q-56 0 -90 -27t-34 -68
q0 -33 25 -59t63 -42t82 -37.5t82 -44.5t63 -64.5t25 -95.5q0 -80 -55 -137t-148 -63l-8 -39q32 -4 52 -23t20 -50q0 -43 -29.5 -63.5t-72.5 -20.5q-14 0 -28 1.5t-21 3.5l-7 2v58q21 -7 43 -7q47 0 47 31t-52 31l-18 -1l19 78q-57 6 -107 32t-71 48z" />
    <glyph glyph-name="scedilla" unicode="&#x15f;" horiz-adv-x="454" 
d="M27 77l50 65q2 -3 7 -8t20 -18t32 -23t42.5 -18t51.5 -8q38 0 63 17t25 48q0 25 -28.5 44t-69 34.5t-81 34.5t-69 52.5t-28.5 78.5q0 69 53 105.5t135 36.5q60 0 113 -23.5t53 -74.5v-48h-87v25q0 21 -24.5 32t-51.5 11q-44 0 -69 -15.5t-25 -44.5q0 -26 28.5 -45.5
t69 -34t81 -32.5t69 -51.5t28.5 -80.5q0 -64 -49 -104t-125 -44l-8 -38q32 -4 51.5 -23t19.5 -50q0 -43 -29 -63.5t-72 -20.5q-14 0 -28 1.5t-21 3.5l-7 2v58q20 -7 43 -7q47 0 47 31t-52 31l-18 -1l20 79q-48 7 -88 28.5t-56 39.5z" />
    <glyph glyph-name="Scaron" unicode="&#x160;" horiz-adv-x="533" 
d="M34 93l59 71q3 -3 8.5 -9t23.5 -20.5t37.5 -26t49 -20.5t58.5 -9q51 0 86 29t35 76q0 34 -25.5 61.5t-63 44.5t-82 39.5t-82 45t-63 62.5t-25.5 92q0 80 63.5 134.5t162.5 54.5q43 0 86 -11.5t79 -42.5t36 -76v-58h-92v33q0 27 -33 45.5t-76 18.5q-56 0 -90 -27t-34 -68
q0 -33 25 -59t63 -42t82 -37.5t82 -44.5t63 -64.5t25 -95.5q0 -84 -61 -142.5t-163 -58.5q-42 0 -81.5 11t-66 26t-47 30.5t-29.5 26.5zM229 755l-88 127h79l52 -81h2l52 81h80l-88 -127h-89z" />
    <glyph glyph-name="scaron" unicode="&#x161;" horiz-adv-x="454" 
d="M27 77l50 65q2 -3 7 -8t20 -18t32 -23t42.5 -18t51.5 -8q38 0 63 17t25 48q0 25 -28.5 44t-69 34.5t-81 34.5t-69 52.5t-28.5 78.5q0 69 53 105.5t135 36.5q60 0 113 -23.5t53 -74.5v-48h-87v25q0 21 -24.5 32t-51.5 11q-44 0 -69 -15.5t-25 -44.5q0 -26 28.5 -45.5
t69 -34t81 -32.5t69 -51.5t28.5 -80.5q0 -67 -52.5 -107.5t-133.5 -40.5q-38 0 -72.5 9t-57 22t-40 26.5t-25.5 22.5zM181 579l-88 127h79l52 -81h2l52 81h80l-88 -127h-89z" />
    <glyph glyph-name="Tcommaaccent" unicode="&#x162;" horiz-adv-x="636" 
d="M510 620h-142v-620h-24l-10 -50q31 -4 51 -23t20 -50q0 -43 -29.5 -63.5t-72.5 -20.5q-14 0 -27.5 1.5t-20.5 3.5l-7 2v58q20 -7 43 -7q47 0 47 31t-53 31l-17 -1l22 88h-22v620h-142q-22 0 -22 -22v-45h-89v93q0 34 13 47t47 13h486q34 0 47 -13t13 -47v-93h-89v45
q0 22 -22 22z" />
    <glyph glyph-name="tcommaaccent" unicode="&#x163;" horiz-adv-x="352" 
d="M89 185v243h-66v78h68v139h95v-139h121v-78h-121v-232q0 -36 11 -60.5t29 -35t34 -14.5t33 -4l23 2v-86q-13 -2 -34 -2q-28 0 -52 5l-10 -51q32 -4 51.5 -23t19.5 -50q0 -43 -29 -63.5t-72 -20.5q-14 0 -28 1.5t-21 3.5l-7 2v58q20 -7 43 -7q47 0 47 31t-52 31l-18 -1
l27 104q-92 43 -92 169z" />
    <glyph glyph-name="Tcaron" unicode="&#x164;" horiz-adv-x="636" 
d="M268 0v620h-142q-22 0 -22 -22v-45h-89v93q0 34 13 47t47 13h486q34 0 47 -13t13 -47v-93h-89v45q0 22 -22 22h-142v-620h-100zM274 755l-88 127h79l52 -81h2l52 81h80l-88 -127h-89z" />
    <glyph glyph-name="tcaron" unicode="&#x165;" horiz-adv-x="380" 
d="M91 185v243h-66v78h68v139h95v-139h121v-78h-121v-232q0 -36 11 -60.5t29 -35t34 -14.5t33 -4l23 2v-86q-13 -2 -34 -2q-23 0 -45 3t-50 15t-48.5 31.5t-35 55.5t-14.5 84zM251 706h79q6 -27 6 -49q0 -41 -24 -92h-69q19 49 19 82q0 29 -11 59z" />
    <glyph glyph-name="Tbar" unicode="&#x166;" horiz-adv-x="636" 
d="M268 0v310h-154v76h154v234h-142q-22 0 -22 -22v-45h-89v93q0 34 13 47t47 13h486q34 0 47 -13t13 -47v-93h-89v45q0 22 -22 22h-142v-234h161v-76h-161v-310h-100z" />
    <glyph glyph-name="tbar" unicode="&#x167;" horiz-adv-x="352" 
d="M89 185v74h-66v68h66v101h-66v78h68v139h95v-139h121v-78h-121v-101h121v-68h-121v-66q0 -34 11 -58t29 -34.5t34 -14.5t33 -4l23 2v-86q-13 -2 -34 -2q-23 0 -45 3t-50 15t-48.5 31.5t-35 55.5t-14.5 84z" />
    <glyph glyph-name="Utilde" unicode="&#x168;" horiz-adv-x="728" 
d="M95 247v351q0 22 -22 22h-43v86h101q34 0 49 -15t15 -49v-391q0 -79 46 -124t123 -45t123 45.5t46 124.5v390q0 34 15.5 49t49.5 15h100v-86h-43q-22 0 -22 -22v-351q0 -116 -74 -187.5t-194 -71.5q-121 0 -195.5 71.5t-74.5 187.5zM195 756q0 127 103 127q29 0 52 -17
t40.5 -34t35.5 -17q21 0 30.5 19.5t9.5 45.5h66q0 -127 -103 -127q-29 0 -51.5 17t-40.5 34t-36 17q-21 0 -30.5 -19.5t-9.5 -45.5h-66z" />
    <glyph glyph-name="utilde" unicode="&#x169;" horiz-adv-x="621" 
d="M83 182v219q0 22 -22 22h-41v83h95q34 0 49.5 -15t15.5 -47v-240q0 -61 19.5 -93.5t74.5 -32.5q75 0 120 56t45 135v237h97v-401q0 -22 22 -22h41v-83h-93q-64 0 -64 56v19l1 29h-2q-19 -44 -68.5 -80t-117.5 -36q-86 0 -129 47.5t-43 146.5zM134 580q0 127 103 127
q29 0 52 -17t40.5 -34t35.5 -17q21 0 30.5 19.5t9.5 45.5h66q0 -127 -103 -127q-29 0 -51.5 17t-40.5 34t-36 17q-21 0 -30.5 -19.5t-9.5 -45.5h-66z" />
    <glyph glyph-name="Umacron" unicode="&#x16a;" horiz-adv-x="728" 
d="M95 247v351q0 22 -22 22h-43v86h101q34 0 49 -15t15 -49v-391q0 -79 46 -124t123 -45t123 45.5t46 124.5v390q0 34 15.5 49t49.5 15h100v-86h-43q-22 0 -22 -22v-351q0 -116 -74 -187.5t-194 -71.5q-121 0 -195.5 71.5t-74.5 187.5zM238 784v68h254v-68h-254z" />
    <glyph glyph-name="umacron" unicode="&#x16b;" horiz-adv-x="621" 
d="M83 182v219q0 22 -22 22h-41v83h95q34 0 49.5 -15t15.5 -47v-240q0 -61 19.5 -93.5t74.5 -32.5q75 0 120 56t45 135v237h97v-401q0 -22 22 -22h41v-83h-93q-64 0 -64 56v19l1 29h-2q-19 -44 -68.5 -80t-117.5 -36q-86 0 -129 47.5t-43 146.5zM177 608v68h254v-68h-254z
" />
    <glyph glyph-name="Ubreve" unicode="&#x16c;" horiz-adv-x="728" 
d="M95 247v351q0 22 -22 22h-43v86h101q34 0 49 -15t15 -49v-391q0 -79 46 -124t123 -45t123 45.5t46 124.5v390q0 34 15.5 49t49.5 15h100v-86h-43q-22 0 -22 -22v-351q0 -116 -74 -187.5t-194 -71.5q-121 0 -195.5 71.5t-74.5 187.5zM365 751q-51 0 -89.5 31t-38.5 86v14
h67v-13q0 -30 18 -45t43 -15q26 0 44 15.5t18 45.5v12h66v-14q0 -55 -38 -86t-90 -31z" />
    <glyph glyph-name="ubreve" unicode="&#x16d;" horiz-adv-x="621" 
d="M83 182v219q0 22 -22 22h-41v83h95q34 0 49.5 -15t15.5 -47v-240q0 -61 19.5 -93.5t74.5 -32.5q75 0 120 56t45 135v237h97v-401q0 -22 22 -22h41v-83h-93q-64 0 -64 56v19l1 29h-2q-19 -44 -68.5 -80t-117.5 -36q-86 0 -129 47.5t-43 146.5zM304 575q-51 0 -89.5 31
t-38.5 86v14h67v-13q0 -30 17.5 -45t43.5 -15t44 15.5t18 45.5v12h66v-14q0 -55 -38 -86t-90 -31z" />
    <glyph glyph-name="Uring" unicode="&#x16e;" horiz-adv-x="728" 
d="M95 247v351q0 22 -22 22h-43v86h101q34 0 49 -15t15 -49v-391q0 -79 46 -124t123 -45t123 45.5t46 124.5v390q0 34 15.5 49t49.5 15h100v-86h-43q-22 0 -22 -22v-351q0 -116 -74 -187.5t-194 -71.5q-121 0 -195.5 71.5t-74.5 187.5zM365 743q-34 0 -57.5 20.5t-23.5 53.5
q0 34 23.5 54.5t57.5 20.5q33 0 57 -20.5t24 -54.5q0 -33 -24 -53.5t-57 -20.5zM365 784q15 0 24.5 9.5t9.5 23.5q0 16 -9.5 25.5t-24.5 9.5t-24.5 -9.5t-9.5 -25.5q0 -14 9.5 -23.5t24.5 -9.5z" />
    <glyph glyph-name="uring" unicode="&#x16f;" horiz-adv-x="621" 
d="M83 182v219q0 22 -22 22h-41v83h95q34 0 49.5 -15t15.5 -47v-240q0 -61 19.5 -93.5t74.5 -32.5q75 0 120 56t45 135v237h97v-401q0 -22 22 -22h41v-83h-93q-64 0 -64 56v19l1 29h-2q-19 -44 -68.5 -80t-117.5 -36q-86 0 -129 47.5t-43 146.5zM304 567q-34 0 -57.5 20.5
t-23.5 53.5q0 34 23.5 54.5t57.5 20.5q33 0 57 -20.5t24 -54.5q0 -33 -24 -53.5t-57 -20.5zM304 608q15 0 24.5 9.5t9.5 23.5q0 16 -9.5 25.5t-24.5 9.5t-24.5 -9.5t-9.5 -25.5q0 -14 9.5 -23.5t24.5 -9.5z" />
    <glyph glyph-name="Uhungarumlaut" unicode="&#x170;" horiz-adv-x="728" 
d="M95 247v351q0 22 -22 22h-43v86h101q34 0 49 -15t15 -49v-391q0 -79 46 -124t123 -45t123 45.5t46 124.5v390q0 34 15.5 49t49.5 15h100v-86h-43q-22 0 -22 -22v-351q0 -116 -74 -187.5t-194 -71.5q-121 0 -195.5 71.5t-74.5 187.5zM400 755l72 127h99l-96 -127h-75z
M247 755l69 127h84l-70 -127h-83z" />
    <glyph glyph-name="uhungarumlaut" unicode="&#x171;" horiz-adv-x="621" 
d="M83 182v219q0 22 -22 22h-41v83h95q34 0 49.5 -15t15.5 -47v-240q0 -61 19.5 -93.5t74.5 -32.5q75 0 120 56t45 135v237h97v-401q0 -22 22 -22h41v-83h-93q-64 0 -64 56v19l1 29h-2q-19 -44 -68.5 -80t-117.5 -36q-86 0 -129 47.5t-43 146.5zM339 579l72 127h99l-96 -127
h-75zM186 579l69 127h84l-70 -127h-83z" />
    <glyph glyph-name="Uogonek" unicode="&#x172;" horiz-adv-x="728" 
d="M95 247v351q0 22 -22 22h-43v86h101q34 0 49 -15t15 -49v-391q0 -79 46 -124t123 -45t123 45.5t46 124.5v390q0 34 15.5 49t49.5 15h100v-86h-43q-22 0 -22 -22v-355q0 -149 -140 -230q-86 -49 -86 -102q0 -17 14 -27.5t28 -13.5l14 -2l-23 -75q-5 0 -12.5 1.5t-27.5 7.5
t-35.5 15.5t-28 28t-12.5 42.5q0 56 52 100v2q-11 -1 -20 -1q-116 0 -188.5 72t-72.5 186z" />
    <glyph glyph-name="uogonek" unicode="&#x173;" horiz-adv-x="621" 
d="M255 -12q-86 0 -129 47.5t-43 146.5v219q0 22 -22 22h-41v83h95q39 0 52 -18.5t13 -64.5v-219q0 -61 19.5 -93.5t74.5 -32.5q75 0 120 56t45 135v237h97v-401q0 -22 22 -22h41v-83q-64 -52 -64 -89q0 -17 13.5 -27.5t27.5 -13.5l14 -2l-23 -75q-5 0 -12.5 1.5t-27.5 7.5
t-35.5 15.5t-28 28t-12.5 42.5q0 60 67 111v2h-19q-57 0 -57 55v19l1 29h-2q-2 -5 -6 -12.5t-19.5 -27.5t-35 -35.5t-53 -28t-72.5 -12.5z" />
    <glyph glyph-name="Wcircumflex" unicode="&#x174;" horiz-adv-x="968" 
d="M221 0l-155 598q-6 22 -34 22h-15v86h57q40 0 59 -12t28 -46l109 -454l14 -75h2q6 36 17 75l142 510h90l132 -510l15 -75h2q4 37 13 75l111 454q9 35 28 46.5t58 11.5h57v-86h-15q-28 0 -34 -22l-155 -598h-116l-120 446l-20 97h-2q-10 -51 -23 -96l-128 -447h-117z
M358 755l87 127h89l88 -127h-79l-52 80h-2l-53 -80h-78z" />
    <glyph glyph-name="wcircumflex" unicode="&#x175;" horiz-adv-x="834" 
d="M188 0l-133 403q-6 20 -31 20h-14v83h61q34 0 49.5 -11t25.5 -43l90 -301l12 -54h2q6 28 14 54l109 353h89l110 -353l13 -54h2q4 28 12 54l89 301q10 32 26 43t50 11h60v-83h-14q-25 0 -31 -20l-133 -403h-109l-105 325l-14 55h-2q-6 -29 -14 -55l-104 -325h-110z
M286 579l87 127h89l88 -127h-79l-52 80h-2l-53 -80h-78z" />
    <glyph glyph-name="Ycircumflex" unicode="&#x176;" horiz-adv-x="603" 
d="M252 0v308l-179 287q-15 25 -43 25h-20v86h46q37 0 56 -10t39 -44l107 -178l43 -79h2q19 40 43 79l106 178q20 34 39 44t56 10h46v-86h-19q-29 0 -44 -25l-178 -287v-308h-100zM171 755l87 127h89l88 -127h-79l-52 80h-2l-53 -80h-78z" />
    <glyph glyph-name="ycircumflex" unicode="&#x177;" horiz-adv-x="546" 
d="M45 -90q0 -1 9 -9.5t27.5 -17.5t37.5 -9q58 0 89 73l23 55l-173 401q-9 20 -32 20h-12v83h57q31 0 45.5 -10.5t26.5 -40.5l115 -285l18 -61h2q7 35 17 61l105 285q11 30 27 40.5t47 10.5h58v-83h-13q-23 0 -32 -20l-200 -494q-23 -58 -66 -88.5t-97 -30.5q-33 0 -63 12.5
t-43 25.5l-13 12zM141 579l87 127h89l88 -127h-79l-52 80h-2l-53 -80h-78z" />
    <glyph glyph-name="Ydieresis" unicode="&#x178;" horiz-adv-x="603" 
d="M252 0v308l-179 287q-15 25 -43 25h-20v86h46q37 0 56 -10t39 -44l107 -178l43 -79h2q19 40 43 79l106 178q20 34 39 44t56 10h46v-86h-19q-29 0 -44 -25l-178 -287v-308h-100zM349 781v101h73v-101h-73zM184 781v101h74v-101h-74z" />
    <glyph glyph-name="Zacute" unicode="&#x179;" horiz-adv-x="582" 
d="M18 0v66l348 490q12 17 25.5 33.5t20.5 24.5l7 7v2q-19 -3 -53 -3h-227q-22 0 -22 -22v-45h-91v89q0 34 15 49t49 15h453v-65l-349 -491q-12 -17 -25 -33t-20 -23l-7 -8v-2q19 2 52 2h249q22 0 22 22v45h92v-89q0 -34 -15 -49t-49 -15h-475zM257 755l73 127h98l-95 -127
h-76z" />
    <glyph glyph-name="zacute" unicode="&#x17a;" horiz-adv-x="505" 
d="M33 0v56l259 320l42 47v2q-16 -2 -49 -2h-138q-22 0 -22 -22v-34h-89v75q0 34 15 49t49 15h362v-56l-260 -321l-42 -46v-2q16 2 49 2h162q22 0 22 22v34h88v-75q0 -34 -15 -49t-49 -15h-384zM221 579l73 127h98l-95 -127h-76z" />
    <glyph glyph-name="Zdotaccent" unicode="&#x17b;" horiz-adv-x="582" 
d="M18 0v66l348 490q12 17 25.5 33.5t20.5 24.5l7 7v2q-19 -3 -53 -3h-227q-22 0 -22 -22v-45h-91v89q0 34 15 49t49 15h453v-65l-349 -491q-12 -17 -25 -33t-20 -23l-7 -8v-2q19 2 52 2h249q22 0 22 22v45h92v-89q0 -34 -15 -49t-49 -15h-475zM253 781v101h87v-101h-87z
" />
    <glyph glyph-name="zdotaccent" unicode="&#x17c;" horiz-adv-x="505" 
d="M33 0v56l259 320l42 47v2q-16 -2 -49 -2h-138q-22 0 -22 -22v-34h-89v75q0 34 15 49t49 15h362v-56l-260 -321l-42 -46v-2q16 2 49 2h162q22 0 22 22v34h88v-75q0 -34 -15 -49t-49 -15h-384zM217 605v101h87v-101h-87z" />
    <glyph glyph-name="Zcaron" unicode="&#x17d;" horiz-adv-x="582" 
d="M18 0v66l348 490q12 17 25.5 33.5t20.5 24.5l7 7v2q-19 -3 -53 -3h-227q-22 0 -22 -22v-45h-91v89q0 34 15 49t49 15h453v-65l-349 -491q-12 -17 -25 -33t-20 -23l-7 -8v-2q19 2 52 2h249q22 0 22 22v45h92v-89q0 -34 -15 -49t-49 -15h-475zM252 755l-88 127h79l52 -81h2
l52 81h80l-88 -127h-89z" />
    <glyph glyph-name="zcaron" unicode="&#x17e;" horiz-adv-x="505" 
d="M33 0v56l259 320l42 47v2q-16 -2 -49 -2h-138q-22 0 -22 -22v-34h-89v75q0 34 15 49t49 15h362v-56l-260 -321l-42 -46v-2q16 2 49 2h162q22 0 22 22v34h88v-75q0 -34 -15 -49t-49 -15h-384zM216 579l-88 127h79l52 -81h2l52 81h80l-88 -127h-89z" />
    <glyph glyph-name="longs" unicode="&#x17f;" horiz-adv-x="325" 
d="M85 0v428h-63v78h63v17q0 48 14 83.5t34.5 55t48 31t49.5 15t45 3.5l37 -3v-83q-10 2 -25 2q-17 0 -33 -4t-34 -14t-28.5 -33t-10.5 -56v-520h-97z" />
    <glyph glyph-name="florin" unicode="&#x192;" horiz-adv-x="360" 
d="M-17 -56l-36 2l8 84q10 -2 24 -2q17 0 33 4t34.5 14.5t31.5 34t16 58.5l18 211h-75v78h82l9 95q4 48 21.5 83.5t39 55t50 31t50.5 15t45 3.5l37 -3l-8 -83q-9 2 -24 2q-17 0 -33 -4t-34.5 -14.5t-31.5 -34t-16 -58.5l-9 -88h106v-78h-112l-19 -218q-4 -48 -21.5 -83.5
t-39 -55t-50.5 -31t-51 -15t-45 -3.5z" />
    <glyph glyph-name="Scommaaccent" unicode="&#x218;" horiz-adv-x="533" 
d="M34 93l59 71q3 -3 8.5 -9t23.5 -20.5t37.5 -26t49 -20.5t58.5 -9q51 0 86 29t35 76q0 34 -25.5 61.5t-63 44.5t-82 39.5t-82 45t-63 62.5t-25.5 92q0 80 63.5 134.5t162.5 54.5q43 0 86 -11.5t79 -42.5t36 -76v-58h-92v33q0 27 -33 45.5t-76 18.5q-56 0 -90 -27t-34 -68
q0 -33 25 -59t63 -42t82 -37.5t82 -44.5t63 -64.5t25 -95.5q0 -84 -61 -142.5t-163 -58.5q-42 0 -81.5 11t-66 26t-47 30.5t-29.5 26.5zM228 -59h79q6 -27 6 -49q0 -41 -24 -92h-69q19 49 19 82q0 29 -11 59z" />
    <glyph glyph-name="scommaaccent" unicode="&#x219;" horiz-adv-x="454" 
d="M27 77l50 65q2 -3 7 -8t20 -18t32 -23t42.5 -18t51.5 -8q38 0 63 17t25 48q0 25 -28.5 44t-69 34.5t-81 34.5t-69 52.5t-28.5 78.5q0 69 53 105.5t135 36.5q60 0 113 -23.5t53 -74.5v-48h-87v25q0 21 -24.5 32t-51.5 11q-44 0 -69 -15.5t-25 -44.5q0 -26 28.5 -45.5
t69 -34t81 -32.5t69 -51.5t28.5 -80.5q0 -67 -52.5 -107.5t-133.5 -40.5q-38 0 -72.5 9t-57 22t-40 26.5t-25.5 22.5zM185 -59h79q6 -27 6 -49q0 -41 -24 -92h-69q19 49 19 82q0 29 -11 59z" />
    <glyph glyph-name="uni021A" unicode="&#x21a;" horiz-adv-x="636" 
d="M268 0v620h-142q-22 0 -22 -22v-45h-89v93q0 34 13 47t47 13h486q34 0 47 -13t13 -47v-93h-89v45q0 22 -22 22h-142v-620h-100zM275 -59h79q6 -27 6 -49q0 -41 -24 -92h-69q19 49 19 82q0 29 -11 59z" />
    <glyph glyph-name="uni021B" unicode="&#x21b;" horiz-adv-x="352" 
d="M89 185v243h-66v78h68v139h95v-139h121v-78h-121v-232q0 -36 11 -60.5t29 -35t34 -14.5t33 -4l23 2v-86q-13 -2 -34 -2q-23 0 -45 3t-50 15t-48.5 31.5t-35 55.5t-14.5 84zM158 -59h79q6 -27 6 -49q0 -41 -24 -92h-69q19 49 19 82q0 29 -11 59z" />
    <glyph glyph-name="circumflex" unicode="&#x2c6;" horiz-adv-x="485" 
d="M111 755l87 127h89l88 -127h-79l-52 80h-2l-53 -80h-78z" />
    <glyph glyph-name="caron" unicode="&#x2c7;" horiz-adv-x="488" 
d="M198 755l-88 127h79l52 -81h2l52 81h80l-88 -127h-89z" />
    <glyph glyph-name="breve" unicode="&#x2d8;" horiz-adv-x="501" 
d="M243 751q-51 0 -89.5 31t-38.5 86v14h67v-13q0 -30 18 -45t43 -15q26 0 44 15.5t18 45.5v12h66v-14q0 -55 -38 -86t-90 -31z" />
    <glyph glyph-name="dotaccent" unicode="&#x2d9;" horiz-adv-x="256" 
d="M84 781v101h87v-101h-87z" />
    <glyph glyph-name="ring" unicode="&#x2da;" horiz-adv-x="380" 
d="M190 743q-34 0 -57.5 20.5t-23.5 53.5q0 34 23.5 54.5t57.5 20.5q33 0 57 -20.5t24 -54.5q0 -33 -24 -53.5t-57 -20.5zM190 784q15 0 24.5 9.5t9.5 23.5q0 16 -9.5 25.5t-24.5 9.5t-24.5 -9.5t-9.5 -25.5q0 -14 9.5 -23.5t24.5 -9.5z" />
    <glyph glyph-name="ogonek" unicode="&#x2db;" horiz-adv-x="361" 
d="M108 -112q0 34 23 66t45 48l23 15l69 -7q-9 -6 -21.5 -16t-34 -36.5t-21.5 -46.5q0 -17 14 -27.5t28 -13.5l14 -2l-23 -75q-5 0 -12.5 1.5t-27.5 7.5t-35.5 15.5t-28 28t-12.5 42.5z" />
    <glyph glyph-name="tilde" unicode="&#x2dc;" horiz-adv-x="519" 
d="M92 756q0 127 103 127q29 0 52 -17t40.5 -34t35.5 -17q21 0 30.5 19.5t9.5 45.5h66q0 -127 -103 -127q-29 0 -51.5 17t-40.5 34t-36 17q-21 0 -30.5 -19.5t-9.5 -45.5h-66z" />
    <glyph glyph-name="hungarumlaut" unicode="&#x2dd;" horiz-adv-x="535" 
d="M252 755l72 127h99l-96 -127h-75zM99 755l69 127h84l-70 -127h-83z" />
    <glyph glyph-name="germandbls.case" unicode="&#x1e9e;" horiz-adv-x="640" 
d="M30 0v86h43q22 0 22 22v398q0 87 57.5 143.5t145.5 56.5h272v-67l-139 -203l-24 -33v-2h10q79 0 131 -60t52 -136q0 -85 -61.5 -145t-147.5 -60h-95v86h88q50 0 82 35t32 84t-31.5 83t-81.5 34h-87v69l113 169l44 61v2q-7 -3 -43 -3h-111q-46 0 -76 -32t-30 -80v-444
q0 -34 -15 -49t-49 -15h-101z" />
    <glyph glyph-name="endash" unicode="&#x2013;" horiz-adv-x="652" 
d="M63 246v78h526v-78h-526z" />
    <glyph glyph-name="emdash" unicode="&#x2014;" horiz-adv-x="852" 
d="M63 246v78h726v-78h-726z" />
    <glyph glyph-name="quoteleft" unicode="&#x2018;" horiz-adv-x="228" 
d="M47 522l65 195h69l-43 -195h-91z" />
    <glyph glyph-name="quoteright" unicode="&#x2019;" horiz-adv-x="228" 
d="M47 523l43 195h91l-65 -195h-69z" />
    <glyph glyph-name="quotesinglbase" unicode="&#x201a;" horiz-adv-x="228" 
d="M90 105h91l-65 -195h-69z" />
    <glyph glyph-name="quotedblleft" unicode="&#x201c;" horiz-adv-x="367" 
d="M185 522l65 195h70l-43 -195h-92zM47 522l65 195h69l-43 -195h-91z" />
    <glyph glyph-name="quotedblright" unicode="&#x201d;" horiz-adv-x="367" 
d="M185 523l43 195h92l-65 -195h-70zM47 523l43 195h91l-65 -195h-69z" />
    <glyph glyph-name="quotedblbase" unicode="&#x201e;" horiz-adv-x="367" 
d="M185 -90l43 195h92l-65 -195h-70zM90 105h91l-65 -195h-69z" />
    <glyph glyph-name="dagger" unicode="&#x2020;" horiz-adv-x="394" 
d="M149 -50v479h-121v77h121v200h93v-200h124v-77h-124v-479h-93z" />
    <glyph glyph-name="daggerdbl" unicode="&#x2021;" horiz-adv-x="394" 
d="M149 -50v221h-121v78h121v180h-121v77h121v200h93v-200h124v-77h-124v-180h124v-78h-124v-221h-93z" />
    <glyph glyph-name="bullet" unicode="&#x2022;" horiz-adv-x="454" 
d="M227 136q-65 0 -110 45t-45 110t45 110t110 45q64 0 109 -45.5t45 -109.5t-45 -109.5t-109 -45.5z" />
    <glyph glyph-name="ellipsis" unicode="&#x2026;" horiz-adv-x="904" 
d="M662 0v103h99v-103h-99zM402 0v103h100v-103h-100zM143 0v103h99v-103h-99z" />
    <glyph glyph-name="perthousand" unicode="&#x2030;" horiz-adv-x="1113" 
d="M210 422q-63 0 -107 43t-44 105q0 61 44 104.5t107 43.5t107.5 -43.5t44.5 -104.5t-44.5 -104.5t-107.5 -43.5zM74 0l540 706h94l-540 -706h-94zM210 496q32 0 53 21t21 53q0 31 -21.5 53t-52.5 22t-52.5 -22t-21.5 -53q0 -32 21 -53t53 -21zM776 136q0 61 44 104.5
t107 43.5t107.5 -43.5t44.5 -104.5t-44.5 -104.5t-107.5 -43.5t-107 43t-44 105zM421 136q0 61 44.5 104.5t107.5 43.5q62 0 107 -43.5t45 -104.5t-45 -104.5t-107 -43.5q-64 0 -108 43t-44 105zM853 136q0 -32 21.5 -53t52.5 -21t52.5 21t21.5 53q0 31 -21.5 53t-52.5 22
t-52.5 -22t-21.5 -53zM499 136q0 -32 21.5 -53t52.5 -21t52.5 21.5t21.5 52.5t-21.5 53t-52.5 22t-52.5 -22t-21.5 -53z" />
    <glyph glyph-name="guilsinglleft" unicode="&#x2039;" horiz-adv-x="367" 
d="M206 77l-164 205l164 206h97l-164 -206l164 -205h-97z" />
    <glyph glyph-name="guilsinglright" unicode="&#x203a;" horiz-adv-x="367" 
d="M62 77l164 205l-164 206h97l164 -206l-164 -205h-97z" />
    <glyph glyph-name="fraction" unicode="&#x2044;" horiz-adv-x="418" 
d="M26 0l287 706h80l-287 -706h-80z" />
    <glyph glyph-name="Euro" unicode="&#x20ac;" horiz-adv-x="601" 
d="M39 258v63h59q-2 18 -2 33l2 39h-59v64h70q31 116 124 188.5t215 72.5q24 0 48 -3t36 -6l12 -3l-24 -91q-35 11 -74 11q-83 0 -144.5 -46t-86.5 -123h277l-14 -64h-278q-2 -17 -2 -37l2 -35h265l-12 -63h-236q23 -80 86 -128t146 -48q23 0 46.5 3.5t34.5 6.5l12 4l20 -91
q-49 -17 -114 -17q-127 0 -219 74.5t-121 195.5h-69z" />
    <glyph glyph-name="trademark" unicode="&#x2122;" horiz-adv-x="983" 
d="M423 266v67h23q10 0 11 9l29 364h69l104 -230l14 -42h2q6 24 13 42l104 230h70l29 -364q0 -9 10 -9h24v-67h-59q-27 0 -37 9t-12 36l-17 218l1 30h-2l-95 -212h-61l-95 212h-2l1 -30l-17 -218q-2 -27 -12 -36t-37 -9h-58zM191 266v373h-76q-9 0 -9 -9v-30h-67v61
q0 26 9.5 35.5t37.5 9.5h286q27 0 37 -9.5t10 -35.5v-61h-66v30q0 9 -9 9h-77v-373h-76z" />
    <glyph glyph-name="minus" unicode="&#x2212;" 
d="M48 246v78h517v-78h-517z" />
    <glyph glyph-name="infinity" unicode="&#x221e;" horiz-adv-x="508" 
d="M254 167q-75 0 -128.5 53.5t-53.5 128.5t53.5 128t128.5 53q76 0 129 -52.5t53 -128.5q0 -75 -53 -128.5t-129 -53.5z" />
    <glyph glyph-name="approxequal" unicode="&#x2248;" 
d="M98 321l-41 59q69 73 151 73q50 0 107.5 -35t90.5 -35q59 0 110 55l41 -59q-70 -72 -151 -72q-50 0 -107.5 35t-90.5 35q-56 0 -110 -56zM98 133l-41 58q69 73 151 73q50 0 107.5 -35t90.5 -35q59 0 110 55l41 -59q-70 -72 -151 -72q-50 0 -107.5 35t-90.5 35
q-57 0 -110 -55z" />
    <glyph glyph-name="notequal" unicode="&#x2260;" 
d="M122 73l56 78h-110v78h162l80 111h-242v78h294l82 115l51 -35l-58 -80h108v-78h-160l-79 -111h239v-78h-292l-79 -112z" />
    <glyph glyph-name="lessequal" unicode="&#x2264;" 
d="M67 252v66l466 208v-89l-358 -151v-2l358 -151v-89zM68 -95h465v-78h-465v78z" />
    <glyph glyph-name="greaterequal" unicode="&#x2265;" 
d="M80 44v89l358 151v2l-358 151v89l467 -208v-66zM80 -95h465v-78h-465v78z" />
    <glyph glyph-name="T.R" horiz-adv-x="616" 
d="M273 0v620h-145q-22 0 -22 -22v-44h-91v93q0 33 12.5 46t45.5 13h516v-86h-216v-620h-100z" />
    <glyph glyph-name="T.L" horiz-adv-x="616" 
d="M244 0v620h-217v86h516q33 0 45.5 -13t12.5 -46v-93h-91v44q0 22 -22 22h-144v-620h-100z" />
    <glyph glyph-name="T.cut_mid" horiz-adv-x="616" 
d="M258 0v620h-228v86h556v-86h-228v-620h-100z" />
    <glyph glyph-name="commaaccent" horiz-adv-x="335" 
d="M131 -59h79q6 -27 6 -49q0 -41 -24 -92h-69q19 49 19 82q0 29 -11 59z" />
    <glyph glyph-name="apple" horiz-adv-x="1130" 
d="M42 128v278l126 71v151l265 142l134 -71l132 71l265 -142v-151l124 -71v-278l-124 -72v-152l-265 -141l-132 71l-134 -71l-265 141v152zM94 142l114 -64v-139l238 -126l121 66l118 -66l238 126v139l114 64v249l-114 66v136l-238 126l-118 -64l-121 64l-238 -126v-136
l-114 -66v-249zM143 154v225l99 58v123l215 114l110 -59l107 59l214 -114v-123l100 -58v-225l-100 -60v-121l-214 -114l-107 58l-110 -58l-215 114v121zM438 0h79v204h206v69h-206v165h151q14 0 19 -6t5 -20v-33h73v74q0 28 -12 40.5t-42 12.5h-331v-68h58v-438z" />
    <glyph glyph-name="zero.tnum" horiz-adv-x="577" 
d="M289 -12q-250 0 -250 366q0 364 250 364q249 0 249 -364q0 -366 -249 -366zM289 79q148 0 148 275q0 273 -148 273q-149 0 -149 -273q0 -275 149 -275z" />
    <glyph glyph-name="one.tnum" horiz-adv-x="571" 
d="M95 0v86h155v456l1 44h-2q-8 -16 -33 -41l-66 -65l-60 62l169 164h91v-620h154v-86h-409z" />
    <glyph glyph-name="two.tnum" horiz-adv-x="571" 
d="M41 81q0 53 20 95.5t51.5 71t69.5 52.5t76.5 45.5t70 44t51.5 54t20 70.5q0 49 -34 80.5t-90 31.5q-46 0 -77.5 -20t-31.5 -47v-31h-92v60q0 43 35 74t80 43.5t90 12.5q97 0 159.5 -56.5t62.5 -146.5q0 -67 -37 -119t-89.5 -84.5t-105 -61t-89.5 -65t-37 -80.5
q0 -19 25 -19h251q22 0 22 22v45h92v-89q0 -34 -15 -49t-49 -15h-362q-40 0 -53.5 18t-13.5 63z" />
    <glyph glyph-name="three.tnum" horiz-adv-x="571" 
d="M40 87l54 75l8.5 -8.5t23.5 -19.5t37 -24.5t49 -19t61 -8.5q58 0 99 36.5t41 92.5q0 57 -44 91.5t-108 34.5h-50l-21 53l147 185q9 13 19.5 24.5t15.5 16.5l6 5v2q-21 -3 -60 -3h-136q-22 0 -22 -22v-45h-92v89q0 34 14 49t47 15h372v-63l-186 -224q80 -9 140 -61
t60 -146q0 -92 -67.5 -158t-174.5 -66q-65 0 -123.5 25t-83.5 49z" />
    <glyph glyph-name="four.tnum" horiz-adv-x="571" 
d="M14 187v64l318 455h114v-433h110v-86h-110v-187h-100v187h-332zM347 273v243l4 72h-2q-18 -34 -36 -59l-154 -212l-37 -45v-2q29 3 60 3h165z" />
    <glyph glyph-name="five.tnum" horiz-adv-x="571" 
d="M44 87l54 73q2 -3 6.5 -8.5t20.5 -19t33.5 -23.5t46 -18.5t58.5 -8.5q66 0 109 40.5t43 100.5q0 64 -48.5 104t-119.5 40q-35 0 -68.5 -9t-49.5 -18l-16 -9l-41 19l28 292q3 35 17 49.5t47 14.5h246q34 0 49 -15t15 -49v-89h-91v45q0 22 -22 22h-148q-19 0 -22 -22
l-14 -129l-5 -37h2q38 21 91 21q112 0 182 -66.5t70 -165.5q0 -96 -71 -164.5t-183 -68.5q-65 0 -119.5 25t-77.5 49z" />
    <glyph glyph-name="six.tnum" horiz-adv-x="571" 
d="M304 -12q-114 0 -189 89.5t-75 235.5q0 72 19.5 141.5t57 129.5t100 97t141.5 37q37 0 71.5 -7t50.5 -15l15 -7l-32 -85q-45 23 -101 23q-90 0 -145 -70.5t-67 -171.5h2q21 32 64.5 50.5t91.5 18.5q99 0 161 -66t62 -164q0 -104 -64 -170t-163 -66zM145 271
q0 -71 46.5 -131.5t111.5 -60.5q60 0 95 41t35 104q0 65 -39 105.5t-106 40.5q-58 0 -100.5 -30t-42.5 -69z" />
    <glyph glyph-name="seven.tnum" horiz-adv-x="571" 
d="M81 0l300 556l41 65v2q-16 -3 -51 -3h-213q-22 0 -22 -22v-45h-92v89q0 34 14 49t47 15h429v-68l-342 -638h-111z" />
    <glyph glyph-name="eight.tnum" horiz-adv-x="571" 
d="M38 202q0 32 12 63t29 51.5t34 36t29 23.5l12 7v2q-4 2 -9.5 5.5t-20.5 17t-26.5 28.5t-21 40.5t-9.5 52.5q0 78 59 133.5t161 55.5q100 0 160.5 -53.5t60.5 -137.5q0 -29 -9 -57t-21 -47.5t-24.5 -34.5t-21.5 -22l-9 -7v-2q105 -61 105 -162q0 -85 -69 -146t-175 -61
q-103 0 -174.5 59t-71.5 155zM281 416q40 -17 55 -17q20 0 47.5 39t27.5 83q0 48 -34.5 77t-89.5 29q-56 0 -89 -28.5t-33 -71.5q0 -42 28.5 -65t87.5 -46zM139 207q0 -57 42.5 -92.5t102.5 -35.5q57 0 100 34t43 85q0 42 -29.5 67t-89.5 49q-64 26 -73 26q-24 0 -60 -41.5
t-36 -91.5z" />
    <glyph glyph-name="nine.tnum" horiz-adv-x="571" 
d="M76 17l32 86q45 -24 101 -24q90 0 145 71t67 172h-2q-21 -32 -64.5 -50.5t-91.5 -18.5q-99 0 -161 65.5t-62 163.5q0 104 64 170t163 66q114 0 189 -89.5t75 -235.5q0 -72 -19.5 -141.5t-57 -129.5t-100 -97t-141.5 -37q-37 0 -71.5 7t-49.5 15zM283 336q58 0 100.5 30
t42.5 69q0 71 -46.5 131.5t-111.5 60.5q-60 0 -95 -41t-35 -104q0 -64 39 -105t106 -41z" />
    <glyph glyph-name="T_h" horiz-adv-x="1144" 
d="M276 0v620h-150q-22 0 -22 -22v-45h-89v93q0 34 13 47t47 13h561q34 0 49 -15t15 -47v-197l-2 -42h2q5 13 17.5 29.5t34.5 36.5t58 33.5t78 13.5q174 0 174 -194v-219q0 -22 22 -22h40v-83h-95q-34 0 -49 15t-15 49v238q0 61 -19.5 94t-76.5 33q-75 0 -122 -55t-47 -137
v-237h-97v598q0 22 -22 22h-205v-620h-100z" />
    <glyph glyph-name="T.alt" horiz-adv-x="625" 
d="M274 0v620h-148q-22 0 -22 -22v-45h-89v93q0 34 13 47t47 13h535v-86h-236v-620h-100z" />
    <glyph glyph-name="Tcommaaccent.alt" horiz-adv-x="625" 
d="M15 553v93q0 34 13 47t47 13h535v-86h-236v-620h-24l-10 -50q31 -4 51 -23t20 -50q0 -43 -29.5 -63.5t-72.5 -20.5q-14 0 -27.5 1.5t-20.5 3.5l-7 2v58q20 -7 43 -7q47 0 47 31t-53 31l-18 -1l23 88h-22v620h-148q-22 0 -22 -22v-45h-89z" />
    <glyph glyph-name="Tcaron.alt" horiz-adv-x="625" 
d="M281 755l-88 127h79l52 -81h2l53 81h79l-88 -127h-89zM274 0v620h-148q-22 0 -22 -22v-45h-89v93q0 34 13 47t47 13h535v-86h-236v-620h-100z" />
    <glyph glyph-name="Tbar.alt" horiz-adv-x="625" 
d="M274 0v310h-150v76h150v234h-148q-22 0 -22 -22v-45h-89v93q0 34 13 47t47 13h535v-86h-236v-234h156v-76h-156v-310h-100z" />
    <glyph glyph-name="uni021A.alt" horiz-adv-x="625" 
d="M274 0v620h-148q-22 0 -22 -22v-45h-89v93q0 34 13 47t47 13h535v-86h-236v-620h-100zM281 -59h79q6 -27 6 -49q0 -41 -24 -92h-69q19 49 19 82q0 29 -11 59z" />
    <glyph glyph-name="hyphen.case" horiz-adv-x="431" 
d="M70 305v86h292v-86h-292z" />
    <glyph glyph-name="parenleft.case" horiz-adv-x="330" 
d="M83 359q0 232 113 406h85q-110 -184 -110 -399q0 -230 115 -431h-86q-117 183 -117 424z" />
    <glyph glyph-name="parenright.case" horiz-adv-x="330" 
d="M44 -65q115 201 115 431q0 215 -110 399h85q113 -174 113 -406q0 -241 -117 -424h-86z" />
    <glyph glyph-name="bracketleft.case" horiz-adv-x="327" 
d="M97 -1v702q0 34 15 49t49 15h101v-73h-58q-22 0 -22 -22v-639q0 -22 22 -22h58v-74h-101q-34 0 -49 15t-15 49z" />
    <glyph glyph-name="bracketright.case" horiz-adv-x="327" 
d="M65 9h58q22 0 22 22v639q0 22 -22 22h-58v73h101q34 0 49.5 -15t15.5 -49v-702q0 -34 -15.5 -49t-49.5 -15h-101v74z" />
    <glyph glyph-name="braceleft.case" horiz-adv-x="339" 
d="M114 107v96q0 29 -9 50.5t-21 32t-24.5 17t-21.5 7.5l-9 2v86q3 0 9 1t20.5 8t26 18t20.5 33t9 51v84q0 45 12.5 78.5t30 51t42 28.5t42 13.5t35.5 2.5l23 -1v-74h-14q-13 0 -24.5 -3.5t-27 -13t-25 -32t-9.5 -56.5v-103q0 -28 -8.5 -51t-20.5 -36.5t-23.5 -23
t-20.5 -13.5l-8 -3v-2q3 -1 8.5 -3t19.5 -12t24.5 -23t19.5 -36.5t9 -52.5v-115q0 -34 9.5 -56.5t25 -32t27 -13t24.5 -3.5h14v-74q-9 -2 -23 -2q-18 0 -35.5 2.5t-42 13.5t-42 28.5t-30 51.5t-12.5 79z" />
    <glyph glyph-name="braceright.case" horiz-adv-x="339" 
d="M40 8h14q13 0 24.5 3.5t27 13t25 32t9.5 56.5v115q0 29 8.5 52.5t20 37t23.5 22.5t20 12l9 3v2q-3 1 -8.5 3.5t-19.5 12.5t-24.5 23t-19.5 36.5t-9 51.5v103q0 34 -9.5 56.5t-25 32t-27 13t-24.5 3.5h-14v74q9 1 23 1q18 0 35.5 -2.5t42 -13.5t42 -28.5t30 -51
t12.5 -78.5v-84q0 -29 9 -51t21.5 -33t24.5 -17.5t21 -7.5l9 -2v-86q-3 0 -9 -1t-20.5 -8t-26 -17.5t-20.5 -32t-9 -50.5v-96q0 -45 -12.5 -79t-30 -51.5t-42 -28.5t-42 -13.5t-35.5 -2.5l-23 2v74z" />
    <glyph glyph-name="at.case" horiz-adv-x="781" 
d="M40 352q0 155 106 262.5t259 107.5q135 0 197.5 -57.5t62.5 -146.5v-283h72v-73h-273q-91 0 -149 55.5t-58 133.5q0 77 57.5 132.5t149.5 55.5h108q-2 45 -44.5 74t-117.5 29q-115 0 -194 -86t-79 -204q0 -121 79.5 -204.5t204.5 -83.5v-79q-166 0 -273.5 106t-107.5 261
zM355 353q0 -49 33 -83.5t83 -34.5h101v237h-99q-51 0 -84.5 -35t-33.5 -84z" />
    <glyph glyph-name="guillemotleft.case" horiz-adv-x="567" 
d="M243 342l164 206h97l-164 -206l164 -205h-97zM206 137l-164 205l164 206h97l-164 -206l164 -205h-97z" />
    <glyph glyph-name="guillemotright.case" horiz-adv-x="567" 
d="M264 137l164 205l-164 206h97l164 -206l-164 -205h-97zM62 137l164 205l-164 206h97l164 -206l-164 -205h-97z" />
    <glyph glyph-name="guilsinglleft.case" horiz-adv-x="367" 
d="M206 137l-164 205l164 206h97l-164 -206l164 -205h-97z" />
    <glyph glyph-name="guilsinglright.case" horiz-adv-x="367" 
d="M62 137l164 205l-164 206h97l164 -206l-164 -205h-97z" />
    <glyph glyph-name="endash.case" horiz-adv-x="652" 
d="M63 306v78h526v-78h-526z" />
    <glyph glyph-name="emdash.case" horiz-adv-x="852" 
d="M63 306v78h726v-78h-726z" />
    <glyph glyph-name="periodcentered.case" horiz-adv-x="240" 
d="M70 294v103h99v-103h-99z" />
    <glyph glyph-name="questiondown.case" horiz-adv-x="453" 
d="M207 609v97h99v-97h-99zM32 170q0 46 18 82.5t44 61t52.5 47t44.5 51t18 61.5v39h94v-45q0 -42 -17.5 -77t-42.5 -58.5t-49.5 -45.5t-42 -49.5t-17.5 -58.5q0 -42 32.5 -71t81.5 -29q28 0 56.5 11t43.5 21l14 11l53 -69q-3 -3 -8 -7t-22 -15t-36 -19.5t-48 -15.5t-60 -7
q-87 0 -148 50.5t-61 131.5z" />
    <glyph glyph-name="exclamdown.case" horiz-adv-x="314" 
d="M107 609v97h99v-97h-99zM107 0l7 512h87l6 -512h-100z" />
    <glyph glyph-name="bullet.case" horiz-adv-x="454" 
d="M227 198q-64 0 -109.5 45.5t-45.5 109.5q0 65 45 110t110 45q64 0 109 -45.5t45 -109.5t-45 -109.5t-109 -45.5z" />
    </font>
</defs>
</svg>
